<?xml version="1.0" standalone="no"?>
<!DOCTYPE svg PUBLIC "-//W3C//DTD SVG 1.1//EN" "http://www.w3.org/Graphics/SVG/1.1/DTD/svg11.dtd" >
<svg xmlns="http://www.w3.org/2000/svg">
<metadata>Generated by IcoMoon</metadata>
<defs>
<font id="icomoon" horiz-adv-x="1024">
<font-face units-per-em="1024" ascent="960" descent="-64" />
<missing-glyph horiz-adv-x="1024" />
<glyph unicode="&#x20;" horiz-adv-x="512" d="" />
<glyph unicode="&#xe900;" glyph-name="email" horiz-adv-x="1358" d="M695.029 250.065c-8.369-8.344-19.687-13.025-31.501-13.025s-23.132 4.681-31.501 13.025l-580.38 580.429c-1.731-7.157-4.357-14.018-4.357-21.746v-713.073c0-49.234 39.869-89.131 89.131-89.131h1069.546c49.182 0 89.156 39.873 89.156 89.131v713.073c0 12.21-2.528 23.922-7.011 34.45l-593.085-593.134zM663.528 344.619l551.38 551.404c-3.145 0.32-5.746 1.807-8.94 1.807h-1069.546c-7.651 0-14.638-2.549-21.77-4.336l548.876-548.876z" />
<glyph unicode="&#xe901;" glyph-name="endereco" horiz-adv-x="1001" d="M500.119 927.268c-212.792 0-371.414-186.848-371.414-402.704 0-273.72 371.414-588.562 371.414-588.562s371.423 314.842 371.423 588.562c0 212.952-158.631 402.704-371.423 402.704zM500.119 369.673c-94.011 0-170.247 76.299-170.247 170.379 0 94.091 76.237 170.377 170.247 170.377 94.031 0 170.268-76.277 170.268-170.377 0-94.070-76.237-170.379-170.268-170.379z" />
<glyph unicode="&#xe902;" glyph-name="facebook" d="M512 960c-282.316 0-512-229.684-512-512 0-282.295 229.684-512 512-512 282.295 0 512 229.705 512 512 0 282.316-229.664 512-512 512zM639.33 429.975h-83.298c0-133.084 0-296.896 0-296.896h-123.432c0 0 0 162.225 0 296.896h-58.674v104.933h58.674v67.872c0 48.61 23.098 124.566 124.566 124.566l91.465-0.351v-101.86c0 0-55.58 0-66.387 0s-26.171-5.403-26.171-28.584v-61.664h94.043l-10.786-104.912z" />
<glyph unicode="&#xe903;" glyph-name="fechar" horiz-adv-x="978" d="M489.075 930.168c269.694 0 489.075-219.381 489.075-489.046s-219.381-489.044-489.075-489.044c-269.676 0-489.075 219.379-489.075 489.044s219.399 489.046 489.075 489.046zM623.089 632.999l-134.013-134.014-134.014 134.026c-15.973 15.973-41.875 15.988-57.864 0-15.973-15.973-15.973-41.889 0-57.862l134.014-134.028-134.026-134.013c-15.973-15.988-15.973-41.891 0-57.864 16.002-16.002 41.891-15.988 57.877-0.015l134.014 134.028 134.013-134.014c15.973-15.973 41.891-15.988 57.864-0.015 16.002 16.002 15.973 41.906 0 57.879l-134.014 134.013 134.014 134.014c15.973 15.959 16.002 41.875 0 57.864-15.974 15.988-41.892 15.974-57.865 0.002z" />
<glyph unicode="&#xe904;" glyph-name="home" horiz-adv-x="984" d="M492.012 936.168l-492.012-492.012v-492.012h393.61v295.207h196.805v-295.207h393.61v492.012z" />
<glyph unicode="&#xe905;" glyph-name="instagram" d="M511.979 345.501c56.488 0 102.54 45.97 102.54 102.499 0 22.315-7.301 42.918-19.386 59.746-18.623 25.821-48.898 42.753-83.092 42.753-34.214 0-64.469-16.911-83.133-42.732-12.127-16.829-19.366-37.432-19.386-59.746-0.062-56.529 45.949-102.52 102.458-102.52zM735.807 573.391v98.704l-98.725-0.309 0.33-98.725zM512 960c-282.316 0-512-229.684-512-512 0-282.295 229.684-512 512-512 282.295 0 512 229.705 512 512 0 282.316-229.664 512-512 512zM803.184 507.746v-238.408c0-62.097-50.486-112.563-112.543-112.563h-357.282c-62.077 0-112.543 50.466-112.543 112.563v357.282c0 62.077 50.466 112.543 112.543 112.543h357.262c62.077 0 112.563-50.466 112.563-112.543v-118.874zM671.276 448c0-87.794-71.44-159.276-159.276-159.276s-159.255 71.481-159.255 159.276c0 21.119 4.207 41.309 11.714 59.746h-86.928v-238.408c0-30.812 25.016-55.766 55.807-55.766h357.262c30.75 0 55.807 24.954 55.807 55.766v238.408h-86.969c7.569-18.437 11.838-38.628 11.838-59.746z" />
<glyph unicode="&#xe906;" horiz-adv-x="4381" d="M2471.917 468.866h253.72v-315.122h-253.72v315.122z" />
<glyph unicode="&#xe907;" horiz-adv-x="4381" d="M2471.917 488.728h234.709v-372.060h-234.709v372.060z" />
<glyph unicode="&#xe908;" horiz-adv-x="4381" d="M4272.708 826.687v-754.707l-140.868-22.064-6.125 35.898c-42.081-22.837-85.552-35.898-133.661-35.898-64.647 0-115.287 21.349-151.533 64.106-36.265 42.738-54.485 101.956-54.485 177.635 0 79.35 21.369 142.935 63.952 190.966 42.738 47.819 99.154 71.815 169.404 71.815 32.768 0 62.657-6.434 92.508-19.958v270.143l160.807 22.064zM4111.882 417.106c-16.751 9.429-34.043 15.418-53.441 15.418-30.488 0-56.223-12.79-77.070-38.371-20.847-25.387-31.358-57.614-31.358-96.333 0-36.284 9.1-66.579 27.493-90.75s40.651-36.265 67.101-36.265c24.537 0 47.896 12.172 67.275 26.276v220.025zM3390.638 71.979h-160.826v462.52h148.557v-77.438c43.742 54.040 97.28 90.035 168.69 90.035 105.202 0 149.427-65.227 149.427-164.845v-310.272h-159.763v265.061c0 40.187-13.795 73.419-59.044 73.419-66.019 0-87.079-52.379-87.079-110.379v-228.101zM3108.748 71.979h-162.932v462.52l162.932 22.084v-484.603zM2366.483 49.915v754.707l160.826 22.064v-312.339c35.434 18.181 74.153 31.705 114.398 31.705 62.889 0 113.877-22.238 152.924-66.908 39.067-44.689 58.523-102.844 58.523-174.679 0-76.027-23.127-137.177-69.574-183.76-46.254-46.428-107.385-69.729-182.89-69.729-24.17 0-49.055 3.304-72.878 7.187l-58.503 13.834-102.825-22.084zM2527.329 178.495c15.804-4.309 34.7-8.752 51.142-8.752 31.531 0 57.808 12.79 79.003 38.545 21.214 25.561 31.725 57.982 31.725 97.396 0 35.57-8.772 64.126-26.45 85.842-17.524 21.717-40.303 32.594-68.318 32.594-21.291 0-48.862-13.988-67.101-24.17v-221.454zM2121.4 71.979h-161.869v462.52h150.663l2.975-81.128c36.362 64.087 83.388 92.682 157.329 92.682h12.771v-172.38c-39.588 0-106.303 2.492-135.941-17.176-17.35-11.573-25.928-39.067-25.928-82.867v-201.651zM1844.958 237.017l-17.872-142.085c-59.605-28.15-119.17-43.974-185.344-43.974-77.070 0-139.090 22.084-186.387 66.405-47.123 44.322-70.772 102.13-70.772 173.269 0 74.288 25.755 137.003 77.438 188.146s114.572 76.742 188.493 76.742c63.237 0 115.094-18.76 155.745-56.223 40.458-37.502 60.783-86.035 60.783-145.601 0-9.1-0.696-23.803-2.106-44.129l-14.896-23.822-315.16-8.752c2.454-31.184 15.418-56.59 38.893-76.046 23.649-19.456 53.441-29.078 89.165-29.078 62.425-0.019 130.241 32.478 182.021 65.15zM1538.376 346.315l200.414 6.125v7.187c0 51.49-40.844 83.388-90.209 83.388-61.015 0.019-99.444-38.178-110.206-96.7zM1068.187 227.202v185.344h-67.275v121.953h67.275v138.742l163.975 22.084v-160.807h109.317v-121.953h-109.317v-196.376c0-41.694 5.622-72.008 17.002-90.576s32.749-35.898 63.932-51.49l-182.89-12.616c-22.953 11.032-38.893 27.339-48.167 49.055-9.313 21.678-13.853 60.59-13.853 116.639zM618.129 71.979h-160.826v462.52h148.557v-77.438c43.742 54.040 97.28 90.035 168.709 90.035 105.202 0 149.427-65.227 149.427-164.845v-310.272h-159.783v265.061c0 40.187-13.776 73.419-59.044 73.419-66 0-87.059-52.379-87.059-110.379v-228.101zM336.239 71.979h-162.913v462.52l162.932 22.084v-484.603z" />
<glyph unicode="&#xe909;" horiz-adv-x="4381" d="M278.818 772.338c0.696-0.367 1.391-0.715 2.067-1.101 8.347-4.618 13.969-9.216 21.311-15.090 1.642-1.314 3.304-2.647 5.197-3.594 7.69-3.922 12.404-7.496 17.736-14.413 4.54-6.299 6.762-11.844 8.192-19.475 0.715-3.536 1.121-6.859 1.372-10.453 0.638-11.766-0.676-20.847-4.424-32.092-4.057-10.936-8.714-18.702-16.403-27.493-8.076-8.733-15.495-14.259-26.18-19.514-11.419-5.178-20.905-7.458-33.406-7.806-5.429-0.019-10.163 0.348-15.495 1.468-6.569 1.198-12.075 2.956-18.277 5.506-11.032 4.927-18.722 10.317-27.3 18.876-8.25 8.752-13.293 16.577-17.91 27.706-4.405 11.592-5.989 20.982-5.796 33.367 0.56 12.23 2.724 21.369 7.786 32.536 5.101 10.395 10.453 17.601 18.954 25.484 8.559 7.496 16.114 11.979 26.798 15.901 7.419 2.473 13.525 3.652 21.33 4.115 6.028 0.889 17.138 1.971 3.169 5.371-9.506 1.488-18.509 0.464-27.841-1.565-12.423-3.323-21.311-7.902-31.531-15.727-10.375-8.482-16.906-16.519-23.359-28.305-6.55-12.79-9.409-23.455-10.51-37.811-0.676-14.684 1.005-25.87 5.893-39.743 5.236-13.428 11.148-22.837 20.886-33.464 10.124-10.414 19.321-16.886 32.575-22.953 13.988-5.951 25.426-8.308 40.632-8.559 15.225 0.193 26.643 2.531 40.69 8.385 13.312 6.047 22.528 12.481 32.787 22.876 9.854 10.568 15.862 19.997 21.311 33.425 5.139 13.93 6.955 25.214 6.569 40.033-0.811 14.452-3.458 25.252-9.564 38.332-0.039 0.116-0.155 0.309-0.174 0.386-5.816 13.099-11.225 21.002-21.137 31.802-5.159 5.236-9.931 9.197-15.998 13.331-5.101 3.285-10.066 5.777-15.669 8.134-8.868 3.458-19.321 6.395-28.923 6.472-7.207-0.155-11.882-7.207-9.042-14.008 5.217-12.578 10.607-16.191 23.687-20.345z" />
<glyph unicode="&#xe90a;" d="M522.37 472.444h135.275v-215.818h-135.275v215.818z" />
<glyph unicode="&#xe90b;" d="M450.41 217.947v448.484l95.571 13.117v-185.618c12.178 6.246 23.943 10.931 35.185 14.157 11.35 3.121 22.278 4.682 32.794 4.682 37.374 0 67.668-13.222 90.882-39.766 23.217-26.548 34.773-61.112 34.773-103.793 0-45.181-13.745-81.511-41.33-109.204-27.483-27.588-63.817-41.435-108.687-41.435-5.726 0-12.076 0.314-19.258 1.040-7.080 0.73-15.096 1.77-24.048 3.23l-34.77 8.222-61.112-13.117zM545.98 294.358c6.867-1.875 12.701-3.121 17.488-3.956 4.79-0.831 9.060-1.25 12.911-1.25 18.738 0 34.354 7.601 46.951 22.903 12.593 15.198 18.842 34.459 18.842 57.882 0 21.133-5.202 38.104-15.721 51.011-10.411 12.907-23.947 19.363-40.6 19.363-4.685 0-10.31-1.145-16.866-3.54-6.661-2.29-14.262-5.935-23.004-10.826v-131.587zM379.722 231.064h-96.817v274.838l96.817 13.117v-287.955z" />
<glyph unicode="&#xe90c;" d="M387.85 513.716c-0.108 0.076-0.22 0.148-0.329 0.224-1.629 1.113-3.269 2.204-4.906 3.302-0.704 0.473-2.106 1.481-2.922 1.647-0.34-1.669-0.683-3.338-1.022-5.007-1.626 0.517 0.405-0.433 1.113-0.903 1.622-1.084 3.237-2.182 4.848-3.284 0.112-0.076 0.22-0.152 0.329-0.228 4.786-3.258 9.876-6.596 14.76-9.67 9.107-5.733 17.553-11.708 27.039-16.906 1.658-0.968 9.41-6.788 11.242-5.733-0.054 0.090-9.569 7.402-10.050 7.752-8.262 6.307-17.246 12.481-25.739 18.535-4.837 3.291-9.515 6.968-14.363 10.27z" />
<glyph unicode="&#xe90d;" d="M553.863 674.325c-0.112 0.076-0.224 0.148-0.336 0.224-1.626 1.113-3.262 2.204-4.902 3.302-0.701 0.473-2.106 1.481-2.922 1.647-0.34-1.669-0.679-3.338-1.019-5.007-1.626 0.517 0.405-0.433 1.113-0.903 1.622-1.087 3.237-2.182 4.848-3.284 0.108-0.076 0.22-0.152 0.329-0.228 4.786-3.258 9.876-6.596 14.764-9.67 9.107-5.733 17.553-11.708 27.039-16.906 1.658-0.968 9.407-6.788 11.238-5.737-0.051 0.090-9.569 7.402-10.050 7.752-8.258 6.307-17.246 12.481-25.735 18.535-4.841 3.295-9.519 6.972-14.367 10.274z" />
<glyph unicode="&#xe90e;" d="M390.454 451.228c-1.553 0.007-3.107 0.018-4.66 0.025 0.007 4.685 0.018 9.374 0.025 14.063 1.553-0.007 3.107-0.018 4.66-0.025-0.007-4.689-0.014-9.378-0.025-14.063zM396.407 451.192c-1.42 0.007-2.839 0.014-4.259 0.025 0.007 4.685 0.018 9.374 0.025 14.063 1.42-0.007 2.839-0.014 4.259-0.025-0.007-4.685-0.018-9.374-0.025-14.063zM407.115 451.134c-0.914 0.004-1.832 0.011-2.749 0.014 0.007 4.689 0.018 9.378 0.025 14.063 0.918-0.004 1.835-0.007 2.749-0.014-0.007-4.685-0.018-9.374-0.025-14.063zM411.713 451.109c-0.629 0-1.254 0.004-1.882 0.011 0.007 4.685 0.018 9.374 0.029 14.063 0.625-0.004 1.254-0.007 1.882-0.011-0.011-4.685-0.018-9.374-0.029-14.063zM416.251 451.083c-0.571 0.004-1.145 0.007-1.72 0.011 0.007 4.689 0.018 9.374 0.025 14.063 0.574 0 1.145-0.004 1.72-0.007-0.007-4.689-0.014-9.378-0.025-14.067zM420.39 451.062c-0.466 0.004-0.932 0.004-1.398 0.007 0.011 4.689 0.018 9.378 0.029 14.063 0.466 0 0.932-0.004 1.398-0.007-0.011-4.689-0.022-9.374-0.029-14.063zM424.397 451.040c-0.354 0-0.712 0.004-1.066 0.004 0.007 4.689 0.018 9.378 0.029 14.067 0.354 0 0.712-0.004 1.066-0.007-0.007-4.685-0.018-9.374-0.029-14.063zM428.807 451.015c-0.267 0.004-0.531 0.004-0.798 0.004 0.007 4.685 0.018 9.378 0.025 14.063 0.267 0 0.531 0 0.798-0.004-0.007-4.685-0.018-9.374-0.025-14.063zM401.844 426.41c-1.044 0.004-2.088 0.011-3.132 0.014 0.007 4.711 0.018 9.418 0.025 14.128 1.048-0.004 2.088-0.011 3.132-0.018-0.007-4.711-0.018-9.414-0.025-14.125zM390.407 426.472c-1.553 0.011-3.107 0.018-4.66 0.029 0.007 4.711 0.018 9.414 0.025 14.125 1.553-0.007 3.107-0.018 4.66-0.025-0.007-4.711-0.018-9.421-0.025-14.128zM396.36 426.439c-1.42 0.007-2.843 0.014-4.259 0.025 0.007 4.711 0.018 9.414 0.025 14.125 1.42-0.007 2.839-0.014 4.263-0.025-0.011-4.707-0.022-9.414-0.029-14.125zM407.068 426.378c-0.918 0.007-1.832 0.011-2.749 0.018 0.007 4.707 0.018 9.414 0.025 14.125 0.918-0.004 1.835-0.011 2.753-0.014-0.014-4.707-0.018-9.418-0.029-14.128zM411.666 426.352c-0.625 0.004-1.254 0.007-1.882 0.011 0.007 4.711 0.018 9.418 0.025 14.128 0.629-0.004 1.257-0.007 1.882-0.011-0.007-4.707-0.018-9.418-0.025-14.128zM416.204 426.331c-0.574 0.004-1.145 0.007-1.72 0.011 0.007 4.711 0.018 9.414 0.029 14.125 0.571 0 1.145-0.004 1.72-0.007-0.011-4.711-0.022-9.421-0.029-14.128zM420.343 426.309c-0.466 0-0.932 0.004-1.398 0.007 0.007 4.707 0.018 9.414 0.025 14.125 0.466 0 0.932-0.004 1.398-0.007-0.007-4.711-0.018-9.421-0.025-14.125zM424.35 426.284c-0.354 0.004-0.712 0.007-1.066 0.007 0.007 4.711 0.018 9.418 0.029 14.128 0.358-0.004 0.712-0.004 1.066-0.007-0.007-4.711-0.018-9.418-0.029-14.128zM428.757 426.259c-0.264 0.004-0.531 0.004-0.798 0.007 0.007 4.711 0.018 9.418 0.025 14.125 0.267 0 0.531 0 0.798-0.004-0.004-4.711-0.014-9.418-0.025-14.128zM401.891 451.163c-1.044 0.004-2.088 0.011-3.132 0.018 0.007 4.685 0.018 9.378 0.029 14.063 1.044-0.004 2.088-0.011 3.132-0.014-0.011-4.689-0.022-9.378-0.029-14.067z" />
<glyph unicode="&#xe90f;" d="M390.454 402.044c-1.553 0.011-3.107 0.018-4.66 0.029 0.007 4.689 0.018 9.374 0.025 14.063 1.553-0.007 3.107-0.018 4.66-0.025-0.007-4.689-0.014-9.378-0.025-14.067zM396.407 402.012c-1.42 0.007-2.839 0.018-4.259 0.025 0.007 4.685 0.018 9.378 0.025 14.063 1.42-0.007 2.839-0.014 4.259-0.022-0.007-4.689-0.018-9.378-0.025-14.067zM407.115 401.954c-0.914 0.007-1.832 0.011-2.749 0.018 0.007 4.689 0.018 9.374 0.025 14.063 0.918-0.004 1.835-0.011 2.749-0.014-0.007-4.693-0.018-9.382-0.025-14.067zM411.713 401.929c-0.629 0.004-1.254 0.007-1.882 0.011 0.007 4.689 0.018 9.378 0.029 14.067 0.625-0.004 1.254-0.007 1.882-0.011-0.011-4.693-0.018-9.378-0.029-14.067zM416.251 401.903c-0.571 0.004-1.145 0.007-1.72 0.011 0.007 4.689 0.018 9.374 0.025 14.063 0.574 0 1.145-0.004 1.72-0.007-0.007-4.689-0.014-9.378-0.025-14.067zM420.39 401.882c-0.466 0-0.932 0.004-1.398 0.007 0.011 4.689 0.018 9.378 0.029 14.067 0.466-0.004 0.932-0.007 1.398-0.011-0.011-4.689-0.022-9.374-0.029-14.063zM424.397 401.857c-0.354 0.004-0.712 0.007-1.066 0.007 0.007 4.689 0.018 9.378 0.029 14.067 0.354-0.004 0.712-0.004 1.066-0.007-0.007-4.689-0.018-9.378-0.029-14.067zM428.807 401.835c-0.267 0-0.531 0-0.798 0.004 0.007 4.689 0.018 9.378 0.025 14.063 0.267 0 0.531 0 0.798-0.004-0.007-4.689-0.018-9.374-0.025-14.063zM401.844 377.227c-1.044 0.007-2.088 0.011-3.132 0.018 0.007 4.711 0.018 9.418 0.025 14.128 1.048-0.007 2.088-0.011 3.132-0.018-0.007-4.711-0.018-9.421-0.025-14.128zM390.407 377.288c-1.553 0.011-3.107 0.018-4.66 0.025 0.007 4.711 0.018 9.418 0.025 14.128 1.553-0.011 3.107-0.018 4.66-0.025-0.007-4.707-0.018-9.418-0.025-14.128zM396.36 377.259c-1.42 0.007-2.843 0.014-4.259 0.022 0.007 4.711 0.018 9.418 0.025 14.128 1.42-0.007 2.839-0.014 4.263-0.022-0.011-4.711-0.022-9.421-0.029-14.128zM407.068 377.198c-0.918 0.007-1.832 0.011-2.749 0.014 0.007 4.711 0.018 9.418 0.025 14.128 0.918-0.004 1.835-0.011 2.753-0.014-0.014-4.711-0.018-9.418-0.029-14.128zM411.666 377.173c-0.625 0.004-1.254 0.007-1.882 0.011 0.007 4.711 0.018 9.418 0.025 14.128 0.629-0.004 1.257-0.007 1.882-0.014-0.007-4.703-0.018-9.414-0.025-14.125zM416.204 377.147c-0.574 0.004-1.145 0.007-1.72 0.011 0.007 4.711 0.018 9.414 0.029 14.125 0.571-0.004 1.145-0.007 1.72-0.007-0.011-4.707-0.022-9.418-0.029-14.128zM420.343 377.126c-0.466 0-0.932 0.004-1.398 0.007 0.007 4.711 0.018 9.414 0.025 14.125 0.466 0 0.932-0.004 1.398-0.007-0.007-4.707-0.018-9.418-0.025-14.125zM424.35 377.104c-0.354 0.004-0.712 0.004-1.066 0.007 0.007 4.711 0.018 9.418 0.029 14.128 0.358-0.004 0.712-0.004 1.066-0.007-0.007-4.711-0.018-9.421-0.029-14.128zM428.757 377.079c-0.264 0.004-0.531 0.004-0.798 0.007 0.007 4.711 0.018 9.418 0.025 14.125 0.267 0 0.531-0.004 0.798-0.004-0.004-4.711-0.014-9.421-0.025-14.128zM401.891 401.983c-1.044 0.004-2.088 0.011-3.132 0.014 0.007 4.689 0.018 9.378 0.029 14.067 1.044-0.004 2.088-0.011 3.132-0.018-0.011-4.689-0.022-9.378-0.029-14.063z" />
<glyph unicode="&#xe910;" d="M556.789 612.845c-1.557 0.007-3.107 0.018-4.66 0.025 0.007 4.689 0.018 9.374 0.025 14.063 1.557-0.007 3.107-0.018 4.66-0.025-0.007-4.689-0.018-9.374-0.025-14.063zM562.739 612.812c-1.423 0.007-2.839 0.014-4.263 0.022 0.011 4.685 0.018 9.378 0.029 14.063 1.423-0.007 2.839-0.014 4.259-0.022-0.007-4.689-0.014-9.378-0.025-14.063zM573.446 612.754c-0.918 0.004-1.835 0.011-2.753 0.014 0.011 4.689 0.022 9.374 0.029 14.063 0.918-0.004 1.835-0.011 2.749-0.014-0.007-4.689-0.014-9.378-0.025-14.063zM578.048 612.729c-0.629 0.004-1.257 0.007-1.882 0.007 0.007 4.689 0.018 9.378 0.029 14.067 0.629-0.004 1.254-0.007 1.882-0.011-0.011-4.689-0.022-9.378-0.029-14.063zM582.582 612.704c-0.571 0-1.145 0.004-1.72 0.007 0.011 4.689 0.018 9.378 0.025 14.063 0.574 0 1.145-0.004 1.723-0.007-0.011-4.689-0.018-9.374-0.029-14.063zM586.721 612.678c-0.466 0-0.932 0.004-1.398 0.007 0.011 4.689 0.018 9.374 0.029 14.067 0.466-0.004 0.932-0.007 1.398-0.007-0.011-4.689-0.018-9.378-0.029-14.067zM590.728 612.657c-0.354 0-0.708 0.004-1.066 0.007 0.011 4.685 0.018 9.374 0.029 14.063 0.358 0 0.708-0.004 1.066-0.004-0.007-4.689-0.018-9.378-0.029-14.067zM595.138 612.635c-0.264 0-0.531 0-0.798 0.004 0.007 4.689 0.018 9.378 0.025 14.063 0.267 0 0.531 0 0.802-0.004-0.011-4.689-0.018-9.374-0.029-14.063zM568.175 588.027c-1.044 0.004-2.088 0.011-3.132 0.018 0.007 4.707 0.018 9.418 0.029 14.128 1.044-0.004 2.084-0.011 3.128-0.014-0.007-4.714-0.018-9.425-0.025-14.132zM556.738 588.089c-1.553 0.011-3.103 0.018-4.66 0.025 0.011 4.711 0.018 9.418 0.029 14.128 1.553-0.011 3.103-0.018 4.66-0.025-0.011-4.711-0.018-9.418-0.029-14.128zM562.692 588.056c-1.42 0.007-2.839 0.014-4.259 0.022 0.007 4.711 0.018 9.418 0.025 14.128 1.423-0.007 2.839-0.014 4.263-0.025-0.011-4.703-0.018-9.414-0.029-14.125zM573.399 587.998c-0.921 0.004-1.835 0.007-2.753 0.014 0.007 4.707 0.018 9.418 0.025 14.125 0.918-0.004 1.835-0.007 2.753-0.014-0.007-4.707-0.018-9.414-0.025-14.125zM577.997 587.973c-0.629 0.004-1.257 0.007-1.882 0.011 0.011 4.711 0.022 9.418 0.029 14.128 0.629-0.004 1.257-0.007 1.882-0.011-0.011-4.711-0.022-9.421-0.029-14.128zM582.535 587.948c-0.571 0.004-1.142 0.007-1.716 0.011 0.007 4.707 0.014 9.418 0.025 14.128 0.571 0 1.145-0.007 1.72-0.011-0.007-4.711-0.018-9.418-0.029-14.128zM586.675 587.926c-0.466 0-0.932 0.004-1.398 0.007 0.007 4.707 0.018 9.418 0.025 14.128 0.466 0 0.932-0.004 1.398-0.007-0.007-4.711-0.018-9.421-0.025-14.128zM590.684 587.904c-0.358 0-0.712 0.004-1.069 0.004 0.011 4.711 0.018 9.418 0.029 14.128 0.358 0 0.712-0.004 1.069-0.007-0.011-4.707-0.018-9.418-0.029-14.125zM595.088 587.879c-0.264 0-0.527 0.004-0.798 0.004 0.011 4.711 0.018 9.418 0.029 14.128 0.264 0 0.531-0.004 0.798-0.004-0.007-4.711-0.018-9.421-0.029-14.128zM568.222 612.78c-1.044 0.007-2.088 0.011-3.132 0.018 0.011 4.689 0.022 9.378 0.029 14.063 1.044-0.004 2.088-0.011 3.132-0.014-0.007-4.689-0.018-9.378-0.029-14.067z" />
<glyph unicode="&#xe911;" d="M556.789 563.665c-1.557 0.007-3.107 0.018-4.66 0.025 0.007 4.689 0.018 9.378 0.025 14.063 1.557-0.007 3.107-0.014 4.66-0.025-0.007-4.689-0.018-9.378-0.025-14.063zM562.739 563.629c-1.423 0.007-2.839 0.014-4.263 0.025 0.011 4.685 0.018 9.374 0.029 14.063 1.423-0.007 2.839-0.014 4.259-0.025-0.007-4.685-0.014-9.374-0.025-14.063zM573.446 563.571c-0.918 0.004-1.835 0.011-2.753 0.014 0.011 4.689 0.022 9.378 0.029 14.063 0.918-0.004 1.835-0.007 2.749-0.014-0.007-4.689-0.014-9.374-0.025-14.063zM578.048 563.546c-0.629 0-1.257 0.004-1.882 0.011 0.007 4.685 0.018 9.374 0.029 14.063 0.629-0.004 1.254-0.007 1.882-0.011-0.011-4.685-0.022-9.374-0.029-14.063zM582.582 563.52c-0.571 0.004-1.145 0.007-1.72 0.011 0.011 4.685 0.018 9.374 0.025 14.063 0.574-0.004 1.145-0.004 1.723-0.007-0.011-4.689-0.018-9.378-0.029-14.067zM586.721 563.499c-0.466 0.004-0.932 0.004-1.398 0.007 0.011 4.689 0.018 9.378 0.029 14.063 0.466-0.004 0.932-0.004 1.398-0.007-0.011-4.689-0.018-9.374-0.029-14.063zM590.728 563.477c-0.354 0-0.708 0.004-1.066 0.004 0.011 4.689 0.018 9.378 0.029 14.067 0.358 0 0.708-0.004 1.066-0.007-0.007-4.685-0.018-9.374-0.029-14.063zM595.138 563.452c-0.264 0-0.531 0.004-0.798 0.004 0.007 4.685 0.018 9.378 0.025 14.063 0.267 0 0.531 0 0.802-0.004-0.011-4.685-0.018-9.374-0.029-14.063zM568.175 538.847c-1.044 0.004-2.088 0.011-3.132 0.014 0.007 4.711 0.018 9.418 0.029 14.128 1.044-0.004 2.084-0.011 3.128-0.018-0.007-4.711-0.018-9.418-0.025-14.125zM556.738 538.909c-1.553 0.007-3.103 0.018-4.66 0.025 0.011 4.711 0.018 9.418 0.029 14.128 1.553-0.007 3.103-0.014 4.66-0.025-0.011-4.711-0.018-9.421-0.029-14.128zM562.692 538.876c-1.42 0.007-2.839 0.014-4.259 0.022 0.007 4.711 0.018 9.418 0.025 14.128 1.423-0.007 2.839-0.014 4.263-0.022-0.011-4.711-0.018-9.421-0.029-14.128zM573.399 538.815c-0.921 0.004-1.835 0.011-2.753 0.014 0.007 4.711 0.018 9.418 0.025 14.128 0.918-0.004 1.835-0.007 2.753-0.014-0.007-4.707-0.018-9.418-0.025-14.128zM577.997 538.79c-0.629 0.004-1.257 0.007-1.882 0.011 0.011 4.711 0.022 9.418 0.029 14.128 0.629-0.004 1.257-0.004 1.882-0.011-0.011-4.707-0.022-9.418-0.029-14.128zM582.535 538.768c-0.571 0-1.142 0.004-1.716 0.011 0.007 4.711 0.014 9.418 0.025 14.128 0.571-0.004 1.145-0.007 1.72-0.007-0.007-4.714-0.018-9.425-0.029-14.132zM586.675 538.743c-0.466 0.004-0.932 0.004-1.398 0.007 0.007 4.711 0.018 9.418 0.025 14.128 0.466-0.004 0.932-0.004 1.398-0.007-0.007-4.707-0.018-9.418-0.025-14.128zM590.684 538.721c-0.358 0-0.712 0.004-1.069 0.007 0.011 4.711 0.018 9.418 0.029 14.128 0.358 0 0.712-0.004 1.069-0.004-0.011-4.714-0.018-9.421-0.029-14.132zM595.088 538.699c-0.264 0-0.527 0-0.798 0.004 0.011 4.711 0.018 9.418 0.029 14.128 0.264 0 0.531 0 0.798-0.004-0.007-4.711-0.018-9.421-0.029-14.128zM568.222 563.6c-1.044 0.004-2.088 0.011-3.132 0.018 0.011 4.685 0.022 9.378 0.029 14.063 1.044-0.004 2.088-0.011 3.132-0.014-0.007-4.689-0.018-9.378-0.029-14.067z" />
<glyph unicode="&#xe912;" d="M390.454 352.865c-1.553 0.011-3.107 0.018-4.66 0.025 0.007 4.689 0.018 9.378 0.025 14.067 1.553-0.007 3.107-0.018 4.66-0.025-0.007-4.693-0.014-9.382-0.025-14.067zM396.407 352.832c-1.42 0.007-2.839 0.014-4.259 0.025 0.007 4.689 0.018 9.374 0.025 14.063 1.42-0.007 2.839-0.014 4.259-0.022-0.007-4.689-0.018-9.378-0.025-14.067zM407.115 352.771c-0.914 0.007-1.832 0.011-2.749 0.018 0.007 4.685 0.018 9.374 0.025 14.063 0.918-0.004 1.835-0.011 2.749-0.014-0.007-4.689-0.018-9.378-0.025-14.067zM411.713 352.745c-0.629 0.004-1.254 0.007-1.882 0.011 0.007 4.689 0.018 9.378 0.029 14.067 0.625-0.004 1.254-0.007 1.882-0.011-0.011-4.689-0.018-9.378-0.029-14.067zM416.251 352.724c-0.571 0.004-1.145 0.007-1.72 0.011 0.007 4.685 0.018 9.378 0.025 14.063 0.574-0.004 1.145-0.004 1.72-0.007-0.007-4.693-0.014-9.382-0.025-14.067zM420.39 352.702c-0.466 0-0.932 0.004-1.398 0.007 0.011 4.689 0.018 9.378 0.029 14.063 0.466-0.004 0.932-0.004 1.398-0.007-0.011-4.693-0.022-9.378-0.029-14.063zM424.397 352.677c-0.354 0.004-0.712 0.004-1.066 0.007 0.007 4.689 0.018 9.378 0.029 14.067 0.354-0.004 0.712-0.004 1.066-0.007-0.007-4.689-0.018-9.378-0.029-14.067zM428.807 352.651c-0.267 0.004-0.531 0.004-0.798 0.007 0.007 4.685 0.018 9.374 0.025 14.063 0.267 0 0.531 0 0.798-0.004-0.007-4.689-0.018-9.378-0.025-14.067zM401.844 328.047c-1.044 0.007-2.088 0.014-3.132 0.018 0.007 4.711 0.018 9.418 0.025 14.128 1.048-0.007 2.088-0.014 3.132-0.018-0.007-4.711-0.018-9.421-0.025-14.128zM390.407 328.109c-1.553 0.007-3.107 0.018-4.66 0.025 0.007 4.711 0.018 9.418 0.025 14.128 1.553-0.007 3.107-0.018 4.66-0.025-0.007-4.707-0.018-9.418-0.025-14.128zM396.36 328.076c-1.42 0.007-2.843 0.014-4.259 0.022 0.007 4.711 0.018 9.418 0.025 14.128 1.42-0.007 2.839-0.014 4.263-0.025-0.011-4.707-0.022-9.418-0.029-14.125zM407.068 328.018c-0.918 0.004-1.832 0.011-2.749 0.014 0.007 4.711 0.018 9.418 0.025 14.128 0.918-0.004 1.835-0.011 2.753-0.014-0.014-4.711-0.018-9.421-0.029-14.128zM411.666 327.993c-0.625 0.004-1.254 0.007-1.882 0.011 0.007 4.711 0.018 9.414 0.025 14.125 0.629-0.004 1.257-0.004 1.882-0.011-0.007-4.707-0.018-9.414-0.025-14.125zM416.204 327.968c-0.574 0.004-1.145 0.004-1.72 0.011 0.007 4.711 0.018 9.414 0.029 14.125 0.571-0.004 1.145-0.007 1.72-0.011-0.011-4.707-0.022-9.414-0.029-14.125zM420.343 327.942c-0.466 0.004-0.932 0.007-1.398 0.007 0.007 4.711 0.018 9.418 0.025 14.128 0.466-0.004 0.932-0.004 1.398-0.007-0.007-4.707-0.018-9.418-0.025-14.128zM424.35 327.921c-0.354 0.004-0.712 0.004-1.066 0.007 0.007 4.711 0.018 9.418 0.029 14.128 0.358-0.004 0.712-0.007 1.066-0.007-0.007-4.707-0.018-9.418-0.029-14.128zM428.757 327.899c-0.264 0.004-0.531 0.004-0.798 0.004 0.007 4.711 0.018 9.418 0.025 14.128 0.267 0 0.531-0.004 0.798-0.004-0.004-4.711-0.014-9.421-0.025-14.128zM401.891 352.8c-1.044 0.007-2.088 0.011-3.132 0.018 0.007 4.689 0.018 9.378 0.029 14.067 1.044-0.007 2.088-0.011 3.132-0.018-0.011-4.689-0.022-9.378-0.029-14.067z" />
<glyph unicode="&#xe913;" d="M390.454 303.009c-1.553 0.011-3.107 0.018-4.66 0.029 0.007 4.685 0.018 9.374 0.025 14.063 1.553-0.011 3.107-0.018 4.66-0.025-0.007-4.689-0.014-9.378-0.025-14.067zM396.407 302.977c-1.42 0.007-2.839 0.014-4.259 0.022 0.007 4.689 0.018 9.378 0.025 14.067 1.42-0.007 2.839-0.014 4.259-0.022-0.007-4.689-0.018-9.378-0.025-14.067zM407.115 302.915c-0.914 0.007-1.832 0.011-2.749 0.014 0.007 4.689 0.018 9.378 0.025 14.067 0.918-0.004 1.835-0.011 2.749-0.014-0.007-4.689-0.018-9.378-0.025-14.067zM411.713 302.894c-0.629 0.004-1.254 0.007-1.882 0.011 0.007 4.689 0.018 9.374 0.029 14.067 0.625-0.004 1.254-0.007 1.882-0.014-0.011-4.689-0.018-9.378-0.029-14.063zM416.251 302.868c-0.571 0.004-1.145 0.007-1.72 0.011 0.007 4.685 0.018 9.374 0.025 14.063 0.574 0 1.145-0.007 1.72-0.011-0.007-4.689-0.014-9.374-0.025-14.063zM420.39 302.843c-0.466 0.004-0.932 0.007-1.398 0.011 0.011 4.685 0.018 9.374 0.029 14.063 0.466 0 0.932-0.004 1.398-0.007-0.011-4.689-0.022-9.378-0.029-14.067zM424.397 302.821c-0.354 0.004-0.712 0.004-1.066 0.007 0.007 4.689 0.018 9.378 0.029 14.063 0.354 0 0.712 0 1.066-0.004-0.007-4.689-0.018-9.378-0.029-14.067zM428.807 302.796c-0.267 0.004-0.531 0.004-0.798 0.007 0.007 4.685 0.018 9.374 0.025 14.063 0.267 0 0.531-0.004 0.798-0.004-0.007-4.689-0.018-9.378-0.025-14.067zM401.844 278.192c-1.044 0.007-2.088 0.011-3.132 0.018 0.007 4.711 0.018 9.418 0.025 14.125 1.048-0.004 2.088-0.011 3.132-0.014-0.007-4.711-0.018-9.421-0.025-14.128zM390.407 278.253c-1.553 0.007-3.107 0.018-4.66 0.025 0.007 4.711 0.018 9.418 0.025 14.128 1.553-0.011 3.107-0.018 4.66-0.025-0.007-4.707-0.018-9.418-0.025-14.128zM396.36 278.224c-1.42 0.007-2.843 0.014-4.259 0.022 0.007 4.711 0.018 9.418 0.025 14.128 1.42-0.007 2.839-0.018 4.263-0.025-0.011-4.711-0.022-9.421-0.029-14.125zM407.068 278.163c-0.918 0.004-1.832 0.011-2.749 0.014 0.007 4.711 0.018 9.418 0.025 14.128 0.918-0.007 1.835-0.011 2.753-0.018-0.014-4.711-0.018-9.414-0.029-14.125zM411.666 278.138c-0.625 0.004-1.254 0.007-1.882 0.011 0.007 4.711 0.018 9.414 0.025 14.125 0.629 0 1.257-0.007 1.882-0.011-0.007-4.703-0.018-9.414-0.025-14.125zM416.204 278.112c-0.574 0.004-1.145 0.004-1.72 0.007 0.007 4.711 0.018 9.418 0.029 14.128 0.571-0.004 1.145-0.007 1.72-0.011-0.011-4.707-0.022-9.414-0.029-14.125zM420.343 278.087c-0.466 0.004-0.932 0.004-1.398 0.007 0.007 4.711 0.018 9.418 0.025 14.128 0.466-0.004 0.932-0.007 1.398-0.007-0.007-4.707-0.018-9.418-0.025-14.128zM424.35 278.069c-0.354 0.004-0.712 0.004-1.066 0.007 0.007 4.711 0.018 9.418 0.029 14.125 0.358 0 0.712-0.004 1.066-0.004-0.007-4.711-0.018-9.421-0.029-14.128zM428.757 278.044c-0.264 0.004-0.531 0.004-0.798 0.004 0.007 4.711 0.018 9.418 0.025 14.128 0.267 0 0.531-0.004 0.798-0.004-0.004-4.711-0.014-9.421-0.025-14.128zM401.891 302.944c-1.044 0.007-2.088 0.011-3.132 0.018 0.007 4.689 0.018 9.378 0.029 14.067 1.044-0.007 2.088-0.011 3.132-0.018-0.011-4.689-0.022-9.378-0.029-14.067z" />
<glyph unicode="&#xe914;" d="M556.789 465.974c-1.557 0.007-3.107 0.018-4.66 0.025 0.007 4.689 0.018 9.374 0.025 14.063 1.557-0.007 3.107-0.018 4.66-0.025-0.007-4.685-0.018-9.374-0.025-14.063zM562.739 465.941c-1.423 0.007-2.839 0.014-4.263 0.022 0.011 4.689 0.018 9.378 0.029 14.063 1.423-0.007 2.839-0.014 4.259-0.022-0.007-4.685-0.014-9.374-0.025-14.063zM573.446 465.883c-0.918 0.004-1.835 0.011-2.753 0.014 0.011 4.689 0.022 9.374 0.029 14.063 0.918-0.004 1.835-0.011 2.749-0.014-0.007-4.689-0.014-9.374-0.025-14.063zM578.048 465.858c-0.629 0.004-1.257 0.007-1.882 0.011 0.007 4.689 0.018 9.374 0.029 14.063 0.629-0.004 1.254-0.007 1.882-0.011-0.011-4.685-0.022-9.378-0.029-14.063zM582.582 465.833c-0.571 0.004-1.145 0.004-1.72 0.007 0.011 4.689 0.018 9.378 0.025 14.067 0.574-0.004 1.145-0.007 1.723-0.011-0.011-4.689-0.018-9.378-0.029-14.063zM586.721 465.811c-0.466 0-0.932 0.004-1.398 0.007 0.011 4.685 0.018 9.374 0.029 14.063 0.466-0.004 0.932-0.004 1.398-0.007-0.011-4.689-0.018-9.374-0.029-14.063zM590.728 465.786c-0.354 0-0.708 0.004-1.066 0.007 0.011 4.685 0.018 9.374 0.029 14.063 0.358 0 0.708-0.004 1.066-0.004-0.007-4.689-0.018-9.378-0.029-14.067zM595.138 465.764c-0.264 0-0.531 0.004-0.798 0.004 0.007 4.689 0.018 9.378 0.025 14.063 0.267 0 0.531 0 0.802-0.004-0.011-4.689-0.018-9.378-0.029-14.063zM568.175 441.156c-1.044 0.007-2.088 0.011-3.132 0.018 0.007 4.711 0.018 9.418 0.029 14.128 1.044-0.004 2.084-0.011 3.128-0.014-0.007-4.714-0.018-9.421-0.025-14.132zM556.738 441.221c-1.553 0.007-3.103 0.018-4.66 0.025 0.011 4.711 0.018 9.418 0.029 14.128 1.553-0.007 3.103-0.018 4.66-0.025-0.011-4.711-0.018-9.421-0.029-14.128zM562.692 441.189c-1.42 0.007-2.839 0.014-4.259 0.022 0.007 4.711 0.018 9.418 0.025 14.128 1.423-0.007 2.839-0.014 4.263-0.022-0.011-4.711-0.018-9.421-0.029-14.128zM573.399 441.127c-0.921 0.004-1.835 0.011-2.753 0.014 0.007 4.711 0.018 9.418 0.025 14.128 0.918-0.004 1.835-0.011 2.753-0.014-0.007-4.707-0.018-9.418-0.025-14.128zM577.997 441.102c-0.629 0.004-1.257 0.007-1.882 0.011 0.011 4.707 0.022 9.418 0.029 14.128 0.629-0.004 1.257-0.007 1.882-0.011-0.011-4.711-0.022-9.418-0.029-14.128zM582.535 441.080c-0.571 0-1.142 0.004-1.716 0.011 0.007 4.707 0.014 9.414 0.025 14.125 0.571-0.004 1.145-0.004 1.72-0.011-0.007-4.711-0.018-9.418-0.029-14.125zM586.675 441.055c-0.466 0.004-0.932 0.007-1.398 0.007 0.007 4.711 0.018 9.418 0.025 14.128 0.466-0.004 0.932-0.004 1.398-0.007-0.007-4.711-0.018-9.421-0.025-14.128zM590.684 441.033c-0.358 0.004-0.712 0.004-1.069 0.007 0.011 4.707 0.018 9.418 0.029 14.128 0.358 0 0.712-0.004 1.069-0.004-0.011-4.714-0.018-9.421-0.029-14.132zM595.088 441.008c-0.264 0.004-0.527 0.004-0.798 0.004 0.011 4.711 0.018 9.418 0.029 14.128 0.264 0 0.531 0 0.798-0.004-0.007-4.711-0.018-9.418-0.029-14.128zM568.222 465.912c-1.044 0.007-2.088 0.011-3.132 0.018 0.011 4.689 0.022 9.378 0.029 14.063 1.044-0.004 2.088-0.011 3.132-0.018-0.007-4.689-0.018-9.374-0.029-14.063z" />
<glyph unicode="&#xe915;" d="M556.789 416.794c-1.557 0.007-3.107 0.018-4.66 0.025 0.007 4.689 0.018 9.378 0.025 14.067 1.557-0.011 3.107-0.018 4.66-0.025-0.007-4.689-0.018-9.378-0.025-14.067zM562.739 416.761c-1.423 0.007-2.839 0.014-4.263 0.022 0.011 4.689 0.018 9.378 0.029 14.067 1.423-0.007 2.839-0.014 4.259-0.025-0.007-4.689-0.014-9.378-0.025-14.063zM573.446 416.704c-0.918 0.004-1.835 0.011-2.753 0.014 0.011 4.689 0.022 9.378 0.029 14.067 0.918-0.004 1.835-0.011 2.749-0.014-0.007-4.693-0.014-9.382-0.025-14.067zM578.048 416.678c-0.629 0.004-1.257 0.007-1.882 0.011 0.007 4.689 0.018 9.374 0.029 14.067 0.629-0.007 1.254-0.011 1.882-0.014-0.011-4.689-0.022-9.374-0.029-14.063zM582.582 416.653c-0.571 0.004-1.145 0.004-1.72 0.007 0.011 4.689 0.018 9.378 0.025 14.067 0.574-0.004 1.145-0.007 1.723-0.011-0.011-4.685-0.018-9.378-0.029-14.063zM586.721 416.628c-0.466 0.004-0.932 0.007-1.398 0.011 0.011 4.685 0.018 9.374 0.029 14.063 0.466 0 0.932-0.004 1.398-0.007-0.011-4.689-0.018-9.378-0.029-14.067zM590.728 416.606c-0.354 0-0.708 0.004-1.066 0.007 0.011 4.689 0.018 9.378 0.029 14.063 0.358 0 0.708-0.004 1.066-0.004-0.007-4.689-0.018-9.378-0.029-14.067zM595.138 416.581c-0.264 0.004-0.531 0.004-0.798 0.004 0.007 4.689 0.018 9.378 0.025 14.067 0.267 0 0.531-0.004 0.802-0.004-0.011-4.689-0.018-9.378-0.029-14.067zM568.175 391.976c-1.044 0.004-2.088 0.011-3.132 0.018 0.007 4.711 0.018 9.418 0.029 14.125 1.044-0.004 2.084-0.011 3.128-0.014-0.007-4.711-0.018-9.421-0.025-14.128zM556.738 392.038c-1.553 0.007-3.103 0.014-4.66 0.025 0.011 4.711 0.018 9.418 0.029 14.128 1.553-0.011 3.103-0.018 4.66-0.025-0.011-4.707-0.018-9.418-0.029-14.128zM562.692 392.005c-1.42 0.011-2.839 0.018-4.259 0.025 0.007 4.711 0.018 9.418 0.025 14.128 1.423-0.007 2.839-0.018 4.263-0.025-0.011-4.711-0.018-9.421-0.029-14.128zM573.399 391.948c-0.921 0.004-1.835 0.011-2.753 0.014 0.007 4.711 0.018 9.418 0.025 14.128 0.918-0.007 1.835-0.011 2.753-0.018-0.007-4.711-0.018-9.414-0.025-14.125zM577.997 391.922c-0.629 0.004-1.257 0.007-1.882 0.011 0.011 4.707 0.022 9.414 0.029 14.125 0.629-0.004 1.257-0.007 1.882-0.011-0.011-4.707-0.022-9.414-0.029-14.125zM582.535 391.897c-0.571 0-1.142 0.004-1.716 0.007 0.007 4.711 0.014 9.418 0.025 14.128 0.571-0.004 1.145-0.007 1.72-0.011-0.007-4.707-0.018-9.414-0.029-14.125zM586.675 391.872c-0.466 0.004-0.932 0.004-1.398 0.007 0.007 4.711 0.018 9.418 0.025 14.128 0.466-0.004 0.932-0.007 1.398-0.007-0.007-4.707-0.018-9.418-0.025-14.128zM590.684 391.854c-0.358 0-0.712 0.004-1.069 0.007 0.011 4.707 0.018 9.414 0.029 14.125 0.358 0 0.712-0.004 1.069-0.007-0.011-4.707-0.018-9.418-0.029-14.125zM595.088 391.828c-0.264 0-0.527 0.004-0.798 0.004 0.011 4.711 0.018 9.418 0.029 14.128 0.264-0.004 0.531-0.004 0.798-0.004-0.007-4.711-0.018-9.421-0.029-14.128zM568.222 416.729c-1.044 0.007-2.088 0.011-3.132 0.018 0.011 4.689 0.022 9.378 0.029 14.067 1.044-0.007 2.088-0.011 3.132-0.018-0.007-4.689-0.018-9.378-0.029-14.067z" />
<glyph unicode="&#xe916;" d="M556.789 515.153c-1.557 0.007-3.107 0.018-4.66 0.025 0.007 4.685 0.018 9.374 0.025 14.063 1.557-0.007 3.107-0.014 4.66-0.025-0.007-4.685-0.018-9.374-0.025-14.063zM562.739 515.125c-1.423 0.007-2.839 0.014-4.263 0.022 0.011 4.689 0.018 9.378 0.029 14.067 1.423-0.007 2.839-0.014 4.259-0.025-0.007-4.689-0.014-9.378-0.025-14.063zM573.446 515.067c-0.918 0.004-1.835 0.011-2.753 0.014 0.011 4.689 0.022 9.378 0.029 14.067 0.918-0.004 1.835-0.011 2.749-0.014-0.007-4.693-0.014-9.382-0.025-14.067zM578.048 515.038c-0.629 0.004-1.257 0.007-1.882 0.011 0.007 4.689 0.018 9.374 0.029 14.067 0.629-0.004 1.254-0.007 1.882-0.011-0.011-4.689-0.022-9.378-0.029-14.067zM582.582 515.013c-0.571 0.004-1.145 0.007-1.72 0.011 0.011 4.685 0.018 9.374 0.025 14.063 0.574-0.004 1.145-0.007 1.723-0.011-0.011-4.685-0.018-9.374-0.029-14.063zM586.721 514.991c-0.466 0.004-0.932 0.004-1.398 0.007 0.011 4.685 0.018 9.374 0.029 14.063 0.466-0.004 0.932-0.004 1.398-0.007-0.011-4.685-0.018-9.374-0.029-14.063zM590.728 514.969c-0.354 0-0.708 0.004-1.066 0.004 0.011 4.689 0.018 9.378 0.029 14.063 0.358 0 0.708-0.004 1.066-0.004-0.007-4.689-0.018-9.374-0.029-14.063zM595.138 514.944c-0.264 0-0.531 0-0.798 0.004 0.007 4.685 0.018 9.374 0.025 14.063 0.267 0 0.531-0.004 0.802-0.004-0.011-4.685-0.018-9.374-0.029-14.063zM568.175 490.336c-1.044 0.004-2.088 0.011-3.132 0.018 0.007 4.711 0.018 9.418 0.029 14.128 1.044-0.004 2.084-0.011 3.128-0.014-0.007-4.711-0.018-9.421-0.025-14.132zM556.738 490.401c-1.553 0.007-3.103 0.014-4.66 0.025 0.011 4.711 0.018 9.418 0.029 14.128 1.553-0.007 3.103-0.018 4.66-0.025-0.011-4.711-0.018-9.418-0.029-14.128zM562.692 490.368c-1.42 0.007-2.839 0.018-4.259 0.025 0.007 4.711 0.018 9.418 0.025 14.128 1.423-0.007 2.839-0.014 4.263-0.022-0.011-4.714-0.018-9.425-0.029-14.132zM573.399 490.307c-0.921 0.004-1.835 0.007-2.753 0.014 0.007 4.711 0.018 9.418 0.025 14.128 0.918-0.004 1.835-0.011 2.753-0.014-0.007-4.711-0.018-9.418-0.025-14.128zM577.997 490.285c-0.629 0.004-1.257 0.007-1.882 0.011 0.011 4.711 0.022 9.418 0.029 14.128 0.629-0.004 1.257-0.007 1.882-0.011-0.011-4.711-0.022-9.421-0.029-14.128zM582.535 490.26c-0.571 0.004-1.142 0.004-1.716 0.007 0.007 4.711 0.014 9.418 0.025 14.128 0.571 0 1.145-0.004 1.72-0.007-0.007-4.711-0.018-9.418-0.029-14.128zM586.675 490.235c-0.466 0-0.932 0.004-1.398 0.007 0.007 4.711 0.018 9.418 0.025 14.128 0.466 0 0.932-0.004 1.398-0.007-0.007-4.711-0.018-9.418-0.025-14.128zM590.684 490.213c-0.358 0.004-0.712 0.004-1.069 0.007 0.011 4.711 0.018 9.418 0.029 14.128 0.358 0 0.712-0.004 1.069-0.004-0.011-4.711-0.018-9.421-0.029-14.132zM595.088 490.188c-0.264 0-0.527 0.004-0.798 0.004 0.011 4.711 0.018 9.418 0.029 14.128 0.264 0 0.531 0 0.798-0.004-0.007-4.707-0.018-9.418-0.029-14.128zM568.222 515.092c-1.044 0.007-2.088 0.011-3.132 0.018 0.011 4.689 0.022 9.374 0.029 14.063 1.044-0.004 2.088-0.011 3.132-0.018-0.007-4.685-0.018-9.374-0.029-14.063z" />
<glyph unicode="&#xe917;" d="M556.789 367.614c-1.557 0.007-3.107 0.018-4.66 0.025 0.007 4.689 0.018 9.378 0.025 14.067 1.557-0.011 3.107-0.018 4.66-0.025-0.007-4.696-0.018-9.382-0.025-14.067zM562.739 367.582c-1.423 0.007-2.839 0.014-4.263 0.022 0.011 4.689 0.018 9.378 0.029 14.067 1.423-0.007 2.839-0.014 4.259-0.025-0.007-4.689-0.014-9.378-0.025-14.063zM573.446 367.52c-0.918 0.004-1.835 0.011-2.753 0.014 0.011 4.689 0.022 9.378 0.029 14.067 0.918-0.007 1.835-0.011 2.749-0.014-0.007-4.689-0.014-9.378-0.025-14.067zM578.048 367.495c-0.629 0.004-1.257 0.007-1.882 0.007 0.007 4.693 0.018 9.378 0.029 14.067 0.629-0.004 1.254-0.007 1.882-0.011-0.011-4.685-0.022-9.378-0.029-14.063zM582.582 367.473c-0.571 0-1.145 0.004-1.72 0.007 0.011 4.689 0.018 9.378 0.025 14.067 0.574-0.004 1.145-0.007 1.723-0.011-0.011-4.693-0.018-9.378-0.029-14.063zM586.721 367.448c-0.466 0.004-0.932 0.007-1.398 0.007 0.011 4.689 0.018 9.378 0.029 14.067 0.466-0.004 0.932-0.007 1.398-0.007-0.011-4.693-0.018-9.378-0.029-14.067zM590.728 367.426c-0.354 0-0.708 0.004-1.066 0.007 0.011 4.685 0.018 9.374 0.029 14.063 0.358 0 0.708-0.004 1.066-0.004-0.007-4.689-0.018-9.378-0.029-14.067zM595.138 367.401c-0.264 0.004-0.531 0.004-0.798 0.004 0.007 4.689 0.018 9.378 0.025 14.067 0.267 0 0.531-0.004 0.802-0.004-0.011-4.689-0.018-9.378-0.029-14.067zM568.175 342.797c-1.044 0.004-2.088 0.011-3.132 0.018 0.007 4.707 0.018 9.414 0.029 14.125 1.044-0.004 2.084-0.011 3.128-0.014-0.007-4.711-0.018-9.421-0.025-14.128zM556.738 342.855c-1.553 0.011-3.103 0.018-4.66 0.029 0.011 4.711 0.018 9.418 0.029 14.128 1.553-0.011 3.103-0.018 4.66-0.029-0.011-4.707-0.018-9.418-0.029-14.128zM562.692 342.822c-1.42 0.007-2.839 0.018-4.259 0.025 0.007 4.711 0.018 9.418 0.025 14.128 1.423-0.007 2.839-0.018 4.263-0.025-0.011-4.707-0.018-9.418-0.029-14.128zM573.399 342.768c-0.921 0.004-1.835 0.007-2.753 0.014 0.007 4.711 0.018 9.418 0.025 14.125 0.918-0.004 1.835-0.007 2.753-0.014-0.007-4.707-0.018-9.418-0.025-14.125zM577.997 342.739c-0.629 0.004-1.257 0.007-1.882 0.011 0.011 4.711 0.022 9.418 0.029 14.128 0.629-0.004 1.257-0.007 1.882-0.011-0.011-4.711-0.022-9.418-0.029-14.128zM582.535 342.714c-0.571 0.004-1.142 0.007-1.716 0.011 0.007 4.711 0.014 9.418 0.025 14.128 0.571-0.004 1.145-0.007 1.72-0.011-0.007-4.711-0.018-9.418-0.029-14.128zM586.675 342.692c-0.466 0.004-0.932 0.004-1.398 0.007 0.007 4.711 0.018 9.418 0.025 14.128 0.466-0.004 0.932-0.007 1.398-0.007-0.007-4.707-0.018-9.418-0.025-14.128zM590.684 342.67c-0.358 0-0.712 0.004-1.069 0.004 0.011 4.711 0.018 9.418 0.029 14.128 0.358 0 0.712-0.004 1.069-0.007-0.011-4.707-0.018-9.414-0.029-14.125zM595.088 342.649c-0.264 0-0.527 0.004-0.798 0.004 0.011 4.711 0.018 9.418 0.029 14.128 0.264-0.004 0.531-0.004 0.798-0.007-0.007-4.707-0.018-9.418-0.029-14.125zM568.222 367.549c-1.044 0.007-2.088 0.011-3.132 0.018 0.011 4.689 0.022 9.378 0.029 14.063 1.044-0.004 2.088-0.011 3.132-0.014-0.007-4.689-0.018-9.378-0.029-14.067z" />
<glyph unicode="&#xe918;" d="M556.789 318.431c-1.557 0.007-3.107 0.018-4.66 0.025 0.007 4.689 0.018 9.378 0.025 14.063 1.557-0.007 3.107-0.014 4.66-0.025-0.007-4.689-0.018-9.378-0.025-14.063zM562.739 318.398c-1.423 0.011-2.839 0.018-4.263 0.025 0.011 4.689 0.018 9.378 0.029 14.067 1.423-0.011 2.839-0.018 4.259-0.025-0.007-4.693-0.014-9.382-0.025-14.067zM573.446 318.341c-0.918 0.004-1.835 0.011-2.753 0.014 0.011 4.689 0.022 9.378 0.029 14.063 0.918-0.004 1.835-0.007 2.749-0.014-0.007-4.689-0.014-9.374-0.025-14.063zM578.048 318.315c-0.629 0.004-1.257 0.004-1.882 0.011 0.007 4.685 0.018 9.374 0.029 14.063 0.629-0.004 1.254-0.007 1.882-0.011-0.011-4.689-0.022-9.378-0.029-14.063zM582.582 318.286c-0.571 0.007-1.145 0.007-1.72 0.011 0.011 4.689 0.018 9.378 0.025 14.067 0.574-0.004 1.145-0.007 1.723-0.011-0.011-4.689-0.018-9.378-0.029-14.067zM586.721 318.265c-0.466 0.004-0.932 0.004-1.398 0.007 0.011 4.689 0.018 9.378 0.029 14.067 0.466-0.004 0.932-0.007 1.398-0.007-0.011-4.689-0.018-9.378-0.029-14.067zM590.728 318.247c-0.354 0-0.708 0.004-1.066 0.004 0.011 4.693 0.018 9.378 0.029 14.067 0.358 0 0.708-0.004 1.066-0.007-0.007-4.689-0.018-9.378-0.029-14.063zM595.138 318.221c-0.264 0-0.531 0.004-0.798 0.004 0.007 4.689 0.018 9.378 0.025 14.067 0.267-0.004 0.531-0.004 0.802-0.007-0.011-4.689-0.018-9.374-0.029-14.063zM568.175 293.613c-1.044 0.004-2.088 0.011-3.132 0.014 0.007 4.711 0.018 9.418 0.029 14.128 1.044-0.004 2.084-0.011 3.128-0.018-0.007-4.707-0.018-9.418-0.025-14.125zM556.738 293.675c-1.553 0.011-3.103 0.018-4.66 0.029 0.011 4.711 0.018 9.418 0.029 14.125 1.553-0.007 3.103-0.014 4.66-0.025-0.011-4.711-0.018-9.418-0.029-14.128zM562.692 293.642c-1.42 0.007-2.839 0.018-4.259 0.025 0.007 4.711 0.018 9.418 0.025 14.125 1.423-0.007 2.839-0.014 4.263-0.022-0.011-4.707-0.018-9.418-0.029-14.128zM573.399 293.581c-0.921 0.007-1.835 0.011-2.753 0.018 0.007 4.711 0.018 9.418 0.025 14.125 0.918-0.004 1.835-0.007 2.753-0.014-0.007-4.707-0.018-9.418-0.025-14.128zM577.997 293.559c-0.629 0.004-1.257 0.007-1.882 0.011 0.011 4.711 0.022 9.418 0.029 14.128 0.629-0.004 1.257-0.007 1.882-0.011-0.011-4.711-0.022-9.421-0.029-14.128zM582.535 293.534c-0.571 0.004-1.142 0.007-1.716 0.011 0.007 4.711 0.014 9.418 0.025 14.128 0.571-0.004 1.145-0.007 1.72-0.011-0.007-4.711-0.018-9.418-0.029-14.128zM586.675 293.512c-0.466 0.004-0.932 0.004-1.398 0.007 0.007 4.711 0.018 9.418 0.025 14.128 0.466-0.004 0.932-0.007 1.398-0.007-0.007-4.711-0.018-9.418-0.025-14.128zM590.684 293.487c-0.358 0.004-0.712 0.004-1.069 0.007 0.011 4.711 0.018 9.418 0.029 14.128 0.358-0.004 0.712-0.004 1.069-0.007-0.011-4.707-0.018-9.418-0.029-14.128zM595.088 293.465c-0.264 0-0.527 0-0.798 0.004 0.011 4.711 0.018 9.418 0.029 14.125 0.264 0 0.531 0 0.798-0.004-0.007-4.703-0.018-9.414-0.029-14.125zM568.222 318.369c-1.044 0.004-2.088 0.011-3.132 0.018 0.011 4.689 0.022 9.378 0.029 14.063 1.044-0.004 2.088-0.011 3.132-0.014-0.007-4.689-0.018-9.378-0.029-14.067z" />
<glyph unicode="&#xe919;" d="M346.339 647.419c0.426-0.224 0.853-0.452 1.272-0.683 5.097-2.814 8.551-5.617 13.037-9.233 1.004-0.798 2.023-1.6 3.168-2.196 4.703-2.395 7.575-4.581 10.837-8.818 2.774-3.851 4.129-7.243 5.003-11.91 0.444-2.081 0.686-4.27 0.842-6.387 0.387-7.207-0.419-12.759-2.702-19.63-2.478-6.687-5.332-11.437-10.028-16.809-4.945-5.336-9.479-8.72-16.010-11.917-6.983-3.164-12.774-4.559-20.428-4.768-3.316-0.014-6.224 0.202-9.468 0.899-3.959 0.69-7.452 1.832-11.17 3.37-6.748 3.006-11.444 6.3-16.689 11.527-5.047 5.343-8.128 10.133-10.949 16.935-2.684 7.084-3.656 12.81-3.544 20.396 0.34 7.471 1.658 13.073 4.761 19.879 3.121 6.369 6.387 10.765 11.589 15.591 5.238 4.584 9.844 7.33 16.379 9.725 4.53 1.517 8.276 2.243 13.045 2.532 3.71 0.524 10.447 1.188 1.929 3.269-5.867 0.896-11.242 0.307-17.018-0.965-7.593-2.030-13.019-4.833-19.269-9.627-6.34-5.187-10.335-10.104-14.273-17.304-3.995-7.821-5.744-14.334-6.419-23.102-0.408-8.977 0.614-15.808 3.612-24.29 3.19-8.197 6.813-13.955 12.756-20.439 6.199-6.38 11.813-10.321 19.901-14.034 8.551-3.62 15.537-5.065 24.828-5.224 9.291 0.119 16.292 1.55 24.872 5.126 8.121 3.67 13.774 7.615 20.035 13.955 6.026 6.463 9.707 12.235 13.019 20.432 3.143 8.515 4.255 15.396 4.024 24.474-0.491 8.822-2.113 15.425-5.845 23.438-0.022 0.061-0.090 0.177-0.101 0.228-3.54 7.976-6.885 12.857-12.918 19.424-3.143 3.186-6.076 5.621-9.775 8.153-3.128 2.009-6.13 3.522-9.566 4.967-5.422 2.121-11.805 3.912-17.672 3.956-4.429-0.087-7.304-4.375-5.563-8.533 3.208-7.676 6.524-9.887 14.5-12.409z" />
<glyph unicode="&#xe91a;" d="M610.361 720.633c2.821-1.47 5.643-2.991 8.431-4.523 33.733-18.651 56.647-37.27 86.363-61.191 6.661-5.292 13.42-10.621 21.006-14.536 31.208-15.833 50.267-30.305 71.931-58.399 18.402-25.504 27.404-48.017 33.191-78.939 2.89-14.266 4.526-27.801 5.599-42.352 2.568-47.785-2.756-84.56-17.9-130.131-16.411-44.321-35.34-75.854-66.458-111.465-32.786-35.409-62.82-57.803-106.144-79.047-46.29-20.995-84.694-30.236-135.452-31.634-22.061-0.094-41.211 1.362-62.777 5.961-26.714 4.815-48.862 11.921-74.080 22.35-44.715 19.919-75.897 41.781-110.653 76.457-33.451 35.416-53.923 67.206-72.599 112.285-17.802 46.933-24.232 84.983-23.488 135.224 2.258 49.534 11.022 86.659 31.594 131.8 20.656 42.164 42.396 71.443 76.84 103.363 34.651 30.33 65.331 48.634 108.604 64.457 30.077 10.071 54.815 14.851 86.482 16.762 24.557 3.49 69.29 7.904 12.795 21.736-38.389 6.076-75.139 1.969-112.881-6.336-50.397-13.438-86.33-32.006-127.83-63.788-42.070-34.419-68.564-66.982-94.704-114.749-26.512-51.838-38.137-95.119-42.609-153.24-2.724-59.547 4.068-104.894 23.947-161.133 21.173-54.364 45.177-92.583 84.618-135.607 41.088-42.294 78.375-68.503 132.017-93.103 56.69-24.034 103.121-33.592 164.724-34.679 61.682 0.802 108.037 10.288 164.998 34.026 53.955 24.398 91.29 50.466 132.916 92.583 39.986 42.912 64.363 81.128 86.355 135.55 20.844 56.488 28.224 102.134 26.689 162.365-3.291 58.536-14.020 102.304-38.776 155.472-0.148 0.401-0.6 1.174-0.676 1.492-23.6 53.045-45.506 85.109-85.673 128.87-20.858 21.126-40.297 37.284-64.836 54.096-20.298 13.182-41.149 23.553-63.456 32.931-35.965 14.074-78.31 25.945-117.238 26.237-29.431-0.578-48.425-29.149-36.901-56.759 21.191-50.903 43.075-65.667 96.029-82.403z" />
<glyph unicode="&#xe91b;" d="M102.572 935.616h822.101c41.713 0 75.731-34.022 75.731-75.735v-822.097c0-41.713-34.018-75.735-75.731-75.735h-822.101c-41.713 0-75.731 34.022-75.731 75.735v822.097c0 41.713 34.018 75.735 75.731 75.735z" />
<glyph unicode="&#xe91c;" d="M522.37 472.444h135.275v-215.818h-135.275v215.818z" />
<glyph unicode="&#xe91d;" d="M450.41 217.947v448.484l95.571 13.117v-185.618c12.178 6.246 23.943 10.931 35.185 14.157 11.35 3.121 22.278 4.682 32.794 4.682 37.374 0 67.668-13.222 90.882-39.766 23.217-26.548 34.773-61.112 34.773-103.793 0-45.181-13.745-81.511-41.33-109.204-27.483-27.588-63.817-41.435-108.687-41.435-5.726 0-12.076 0.314-19.258 1.040-7.080 0.73-15.096 1.77-24.048 3.23l-34.77 8.222-61.112-13.117zM545.98 294.358c6.867-1.875 12.701-3.121 17.488-3.956 4.79-0.831 9.060-1.25 12.911-1.25 18.738 0 34.354 7.601 46.951 22.903 12.593 15.198 18.842 34.459 18.842 57.882 0 21.133-5.202 38.104-15.721 51.011-10.411 12.907-23.947 19.363-40.6 19.363-4.685 0-10.31-1.145-16.866-3.54-6.661-2.29-14.262-5.935-23.004-10.826v-131.587zM379.722 231.064h-96.817v274.838l96.817 13.117v-287.955z" />
<glyph unicode="&#xe91e;" d="M387.85 513.716c-0.108 0.076-0.22 0.148-0.329 0.224-1.629 1.113-3.269 2.204-4.906 3.302-0.704 0.473-2.106 1.481-2.922 1.647-0.34-1.669-0.683-3.338-1.022-5.007-1.626 0.517 0.405-0.433 1.113-0.903 1.622-1.084 3.237-2.182 4.848-3.284 0.112-0.076 0.22-0.152 0.329-0.228 4.786-3.258 9.876-6.596 14.76-9.67 9.107-5.733 17.553-11.708 27.039-16.906 1.658-0.968 9.41-6.788 11.242-5.733-0.054 0.090-9.569 7.402-10.050 7.752-8.262 6.307-17.246 12.481-25.739 18.535-4.837 3.291-9.515 6.968-14.363 10.27z" />
<glyph unicode="&#xe91f;" d="M553.863 674.325c-0.112 0.076-0.224 0.148-0.336 0.224-1.626 1.113-3.262 2.204-4.902 3.302-0.701 0.473-2.106 1.481-2.922 1.647-0.34-1.669-0.679-3.338-1.019-5.007-1.626 0.517 0.405-0.433 1.113-0.903 1.622-1.087 3.237-2.182 4.848-3.284 0.108-0.076 0.22-0.152 0.329-0.228 4.786-3.258 9.876-6.596 14.764-9.67 9.107-5.733 17.553-11.708 27.039-16.906 1.658-0.968 9.407-6.788 11.238-5.737-0.051 0.090-9.569 7.402-10.050 7.752-8.258 6.307-17.246 12.481-25.735 18.535-4.841 3.295-9.519 6.972-14.367 10.274z" />
<glyph unicode="&#xe920;" d="M390.454 451.228c-1.553 0.007-3.107 0.018-4.66 0.025 0.007 4.685 0.018 9.374 0.025 14.063 1.553-0.007 3.107-0.018 4.66-0.025-0.007-4.689-0.014-9.378-0.025-14.063zM396.407 451.192c-1.42 0.007-2.839 0.014-4.259 0.025 0.007 4.685 0.018 9.374 0.025 14.063 1.42-0.007 2.839-0.014 4.259-0.025-0.007-4.685-0.018-9.374-0.025-14.063zM407.115 451.134c-0.914 0.004-1.832 0.011-2.749 0.014 0.007 4.689 0.018 9.378 0.025 14.063 0.918-0.004 1.835-0.007 2.749-0.014-0.007-4.685-0.018-9.374-0.025-14.063zM411.713 451.109c-0.629 0-1.254 0.004-1.882 0.011 0.007 4.685 0.018 9.374 0.029 14.063 0.625-0.004 1.254-0.007 1.882-0.011-0.011-4.685-0.018-9.374-0.029-14.063zM416.251 451.083c-0.571 0.004-1.145 0.007-1.72 0.011 0.007 4.689 0.018 9.374 0.025 14.063 0.574 0 1.145-0.004 1.72-0.007-0.007-4.689-0.014-9.378-0.025-14.067zM420.39 451.062c-0.466 0.004-0.932 0.004-1.398 0.007 0.011 4.689 0.018 9.378 0.029 14.063 0.466 0 0.932-0.004 1.398-0.007-0.011-4.689-0.022-9.374-0.029-14.063zM424.397 451.040c-0.354 0-0.712 0.004-1.066 0.004 0.007 4.689 0.018 9.378 0.029 14.067 0.354 0 0.712-0.004 1.066-0.007-0.007-4.685-0.018-9.374-0.029-14.063zM428.807 451.015c-0.267 0.004-0.531 0.004-0.798 0.004 0.007 4.685 0.018 9.378 0.025 14.063 0.267 0 0.531 0 0.798-0.004-0.007-4.685-0.018-9.374-0.025-14.063zM401.844 426.41c-1.044 0.004-2.088 0.011-3.132 0.014 0.007 4.711 0.018 9.418 0.025 14.128 1.048-0.004 2.088-0.011 3.132-0.018-0.007-4.711-0.018-9.414-0.025-14.125zM390.407 426.472c-1.553 0.011-3.107 0.018-4.66 0.029 0.007 4.711 0.018 9.414 0.025 14.125 1.553-0.007 3.107-0.018 4.66-0.025-0.007-4.711-0.018-9.421-0.025-14.128zM396.36 426.439c-1.42 0.007-2.843 0.014-4.259 0.025 0.007 4.711 0.018 9.414 0.025 14.125 1.42-0.007 2.839-0.014 4.263-0.025-0.011-4.707-0.022-9.414-0.029-14.125zM407.068 426.378c-0.918 0.007-1.832 0.011-2.749 0.018 0.007 4.707 0.018 9.414 0.025 14.125 0.918-0.004 1.835-0.011 2.753-0.014-0.014-4.707-0.018-9.418-0.029-14.128zM411.666 426.352c-0.625 0.004-1.254 0.007-1.882 0.011 0.007 4.711 0.018 9.418 0.025 14.128 0.629-0.004 1.257-0.007 1.882-0.011-0.007-4.707-0.018-9.418-0.025-14.128zM416.204 426.331c-0.574 0.004-1.145 0.007-1.72 0.011 0.007 4.711 0.018 9.414 0.029 14.125 0.571 0 1.145-0.004 1.72-0.007-0.011-4.711-0.022-9.421-0.029-14.128zM420.343 426.309c-0.466 0-0.932 0.004-1.398 0.007 0.007 4.707 0.018 9.414 0.025 14.125 0.466 0 0.932-0.004 1.398-0.007-0.007-4.711-0.018-9.421-0.025-14.125zM424.35 426.284c-0.354 0.004-0.712 0.007-1.066 0.007 0.007 4.711 0.018 9.418 0.029 14.128 0.358-0.004 0.712-0.004 1.066-0.007-0.007-4.711-0.018-9.418-0.029-14.128zM428.757 426.259c-0.264 0.004-0.531 0.004-0.798 0.007 0.007 4.711 0.018 9.418 0.025 14.125 0.267 0 0.531 0 0.798-0.004-0.004-4.711-0.014-9.418-0.025-14.128zM401.891 451.163c-1.044 0.004-2.088 0.011-3.132 0.018 0.007 4.685 0.018 9.378 0.029 14.063 1.044-0.004 2.088-0.011 3.132-0.014-0.011-4.689-0.022-9.378-0.029-14.067z" />
<glyph unicode="&#xe921;" d="M390.454 402.044c-1.553 0.011-3.107 0.018-4.66 0.029 0.007 4.689 0.018 9.374 0.025 14.063 1.553-0.007 3.107-0.018 4.66-0.025-0.007-4.689-0.014-9.378-0.025-14.067zM396.407 402.012c-1.42 0.007-2.839 0.018-4.259 0.025 0.007 4.685 0.018 9.378 0.025 14.063 1.42-0.007 2.839-0.014 4.259-0.022-0.007-4.689-0.018-9.378-0.025-14.067zM407.115 401.954c-0.914 0.007-1.832 0.011-2.749 0.018 0.007 4.689 0.018 9.374 0.025 14.063 0.918-0.004 1.835-0.011 2.749-0.014-0.007-4.693-0.018-9.382-0.025-14.067zM411.713 401.929c-0.629 0.004-1.254 0.007-1.882 0.011 0.007 4.689 0.018 9.378 0.029 14.067 0.625-0.004 1.254-0.007 1.882-0.011-0.011-4.693-0.018-9.378-0.029-14.067zM416.251 401.903c-0.571 0.004-1.145 0.007-1.72 0.011 0.007 4.689 0.018 9.374 0.025 14.063 0.574 0 1.145-0.004 1.72-0.007-0.007-4.689-0.014-9.378-0.025-14.067zM420.39 401.882c-0.466 0-0.932 0.004-1.398 0.007 0.011 4.689 0.018 9.378 0.029 14.067 0.466-0.004 0.932-0.007 1.398-0.011-0.011-4.689-0.022-9.374-0.029-14.063zM424.397 401.857c-0.354 0.004-0.712 0.007-1.066 0.007 0.007 4.689 0.018 9.378 0.029 14.067 0.354-0.004 0.712-0.004 1.066-0.007-0.007-4.689-0.018-9.378-0.029-14.067zM428.807 401.835c-0.267 0-0.531 0-0.798 0.004 0.007 4.689 0.018 9.378 0.025 14.063 0.267 0 0.531 0 0.798-0.004-0.007-4.689-0.018-9.374-0.025-14.063zM401.844 377.227c-1.044 0.007-2.088 0.011-3.132 0.018 0.007 4.711 0.018 9.418 0.025 14.128 1.048-0.007 2.088-0.011 3.132-0.018-0.007-4.711-0.018-9.421-0.025-14.128zM390.407 377.288c-1.553 0.011-3.107 0.018-4.66 0.025 0.007 4.711 0.018 9.418 0.025 14.128 1.553-0.011 3.107-0.018 4.66-0.025-0.007-4.707-0.018-9.418-0.025-14.128zM396.36 377.259c-1.42 0.007-2.843 0.014-4.259 0.022 0.007 4.711 0.018 9.418 0.025 14.128 1.42-0.007 2.839-0.014 4.263-0.022-0.011-4.711-0.022-9.421-0.029-14.128zM407.068 377.198c-0.918 0.007-1.832 0.011-2.749 0.014 0.007 4.711 0.018 9.418 0.025 14.128 0.918-0.004 1.835-0.011 2.753-0.014-0.014-4.711-0.018-9.418-0.029-14.128zM411.666 377.173c-0.625 0.004-1.254 0.007-1.882 0.011 0.007 4.711 0.018 9.418 0.025 14.128 0.629-0.004 1.257-0.007 1.882-0.014-0.007-4.703-0.018-9.414-0.025-14.125zM416.204 377.147c-0.574 0.004-1.145 0.007-1.72 0.011 0.007 4.711 0.018 9.414 0.029 14.125 0.571-0.004 1.145-0.007 1.72-0.007-0.011-4.707-0.022-9.418-0.029-14.128zM420.343 377.126c-0.466 0-0.932 0.004-1.398 0.007 0.007 4.711 0.018 9.414 0.025 14.125 0.466 0 0.932-0.004 1.398-0.007-0.007-4.707-0.018-9.418-0.025-14.125zM424.35 377.104c-0.354 0.004-0.712 0.004-1.066 0.007 0.007 4.711 0.018 9.418 0.029 14.128 0.358-0.004 0.712-0.004 1.066-0.007-0.007-4.711-0.018-9.421-0.029-14.128zM428.757 377.079c-0.264 0.004-0.531 0.004-0.798 0.007 0.007 4.711 0.018 9.418 0.025 14.125 0.267 0 0.531-0.004 0.798-0.004-0.004-4.711-0.014-9.421-0.025-14.128zM401.891 401.983c-1.044 0.004-2.088 0.011-3.132 0.014 0.007 4.689 0.018 9.378 0.029 14.067 1.044-0.004 2.088-0.011 3.132-0.018-0.011-4.689-0.022-9.378-0.029-14.063z" />
<glyph unicode="&#xe922;" d="M556.789 612.845c-1.557 0.007-3.107 0.018-4.66 0.025 0.007 4.689 0.018 9.374 0.025 14.063 1.557-0.007 3.107-0.018 4.66-0.025-0.007-4.689-0.018-9.374-0.025-14.063zM562.739 612.812c-1.423 0.007-2.839 0.014-4.263 0.022 0.011 4.685 0.018 9.378 0.029 14.063 1.423-0.007 2.839-0.014 4.259-0.022-0.007-4.689-0.014-9.378-0.025-14.063zM573.446 612.754c-0.918 0.004-1.835 0.011-2.753 0.014 0.011 4.689 0.022 9.374 0.029 14.063 0.918-0.004 1.835-0.011 2.749-0.014-0.007-4.689-0.014-9.378-0.025-14.063zM578.048 612.729c-0.629 0.004-1.257 0.007-1.882 0.007 0.007 4.689 0.018 9.378 0.029 14.067 0.629-0.004 1.254-0.007 1.882-0.011-0.011-4.689-0.022-9.378-0.029-14.063zM582.582 612.704c-0.571 0-1.145 0.004-1.72 0.007 0.011 4.689 0.018 9.378 0.025 14.063 0.574 0 1.145-0.004 1.723-0.007-0.011-4.689-0.018-9.374-0.029-14.063zM586.721 612.678c-0.466 0-0.932 0.004-1.398 0.007 0.011 4.689 0.018 9.374 0.029 14.067 0.466-0.004 0.932-0.007 1.398-0.007-0.011-4.689-0.018-9.378-0.029-14.067zM590.728 612.657c-0.354 0-0.708 0.004-1.066 0.007 0.011 4.685 0.018 9.374 0.029 14.063 0.358 0 0.708-0.004 1.066-0.004-0.007-4.689-0.018-9.378-0.029-14.067zM595.138 612.635c-0.264 0-0.531 0-0.798 0.004 0.007 4.689 0.018 9.378 0.025 14.063 0.267 0 0.531 0 0.802-0.004-0.011-4.689-0.018-9.374-0.029-14.063zM568.175 588.027c-1.044 0.004-2.088 0.011-3.132 0.018 0.007 4.707 0.018 9.418 0.029 14.128 1.044-0.004 2.084-0.011 3.128-0.014-0.007-4.714-0.018-9.425-0.025-14.132zM556.738 588.089c-1.553 0.011-3.103 0.018-4.66 0.025 0.011 4.711 0.018 9.418 0.029 14.128 1.553-0.011 3.103-0.018 4.66-0.025-0.011-4.711-0.018-9.418-0.029-14.128zM562.692 588.056c-1.42 0.007-2.839 0.014-4.259 0.022 0.007 4.711 0.018 9.418 0.025 14.128 1.423-0.007 2.839-0.014 4.263-0.025-0.011-4.703-0.018-9.414-0.029-14.125zM573.399 587.998c-0.921 0.004-1.835 0.007-2.753 0.014 0.007 4.707 0.018 9.418 0.025 14.125 0.918-0.004 1.835-0.007 2.753-0.014-0.007-4.707-0.018-9.414-0.025-14.125zM577.997 587.973c-0.629 0.004-1.257 0.007-1.882 0.011 0.011 4.711 0.022 9.418 0.029 14.128 0.629-0.004 1.257-0.007 1.882-0.011-0.011-4.711-0.022-9.421-0.029-14.128zM582.535 587.948c-0.571 0.004-1.142 0.007-1.716 0.011 0.007 4.707 0.014 9.418 0.025 14.128 0.571 0 1.145-0.007 1.72-0.011-0.007-4.711-0.018-9.418-0.029-14.128zM586.675 587.926c-0.466 0-0.932 0.004-1.398 0.007 0.007 4.707 0.018 9.418 0.025 14.128 0.466 0 0.932-0.004 1.398-0.007-0.007-4.711-0.018-9.421-0.025-14.128zM590.684 587.904c-0.358 0-0.712 0.004-1.069 0.004 0.011 4.711 0.018 9.418 0.029 14.128 0.358 0 0.712-0.004 1.069-0.007-0.011-4.707-0.018-9.418-0.029-14.125zM595.088 587.879c-0.264 0-0.527 0.004-0.798 0.004 0.011 4.711 0.018 9.418 0.029 14.128 0.264 0 0.531-0.004 0.798-0.004-0.007-4.711-0.018-9.421-0.029-14.128zM568.222 612.78c-1.044 0.007-2.088 0.011-3.132 0.018 0.011 4.689 0.022 9.378 0.029 14.063 1.044-0.004 2.088-0.011 3.132-0.014-0.007-4.689-0.018-9.378-0.029-14.067z" />
<glyph unicode="&#xe923;" d="M556.789 563.665c-1.557 0.007-3.107 0.018-4.66 0.025 0.007 4.689 0.018 9.378 0.025 14.063 1.557-0.007 3.107-0.014 4.66-0.025-0.007-4.689-0.018-9.378-0.025-14.063zM562.739 563.629c-1.423 0.007-2.839 0.014-4.263 0.025 0.011 4.685 0.018 9.374 0.029 14.063 1.423-0.007 2.839-0.014 4.259-0.025-0.007-4.685-0.014-9.374-0.025-14.063zM573.446 563.571c-0.918 0.004-1.835 0.011-2.753 0.014 0.011 4.689 0.022 9.378 0.029 14.063 0.918-0.004 1.835-0.007 2.749-0.014-0.007-4.689-0.014-9.374-0.025-14.063zM578.048 563.546c-0.629 0-1.257 0.004-1.882 0.011 0.007 4.685 0.018 9.374 0.029 14.063 0.629-0.004 1.254-0.007 1.882-0.011-0.011-4.685-0.022-9.374-0.029-14.063zM582.582 563.52c-0.571 0.004-1.145 0.007-1.72 0.011 0.011 4.685 0.018 9.374 0.025 14.063 0.574-0.004 1.145-0.004 1.723-0.007-0.011-4.689-0.018-9.378-0.029-14.067zM586.721 563.499c-0.466 0.004-0.932 0.004-1.398 0.007 0.011 4.689 0.018 9.378 0.029 14.063 0.466-0.004 0.932-0.004 1.398-0.007-0.011-4.689-0.018-9.374-0.029-14.063zM590.728 563.477c-0.354 0-0.708 0.004-1.066 0.004 0.011 4.689 0.018 9.378 0.029 14.067 0.358 0 0.708-0.004 1.066-0.007-0.007-4.685-0.018-9.374-0.029-14.063zM595.138 563.452c-0.264 0-0.531 0.004-0.798 0.004 0.007 4.685 0.018 9.378 0.025 14.063 0.267 0 0.531 0 0.802-0.004-0.011-4.685-0.018-9.374-0.029-14.063zM568.175 538.847c-1.044 0.004-2.088 0.011-3.132 0.014 0.007 4.711 0.018 9.418 0.029 14.128 1.044-0.004 2.084-0.011 3.128-0.018-0.007-4.711-0.018-9.418-0.025-14.125zM556.738 538.909c-1.553 0.007-3.103 0.018-4.66 0.025 0.011 4.711 0.018 9.418 0.029 14.128 1.553-0.007 3.103-0.014 4.66-0.025-0.011-4.711-0.018-9.421-0.029-14.128zM562.692 538.876c-1.42 0.007-2.839 0.014-4.259 0.022 0.007 4.711 0.018 9.418 0.025 14.128 1.423-0.007 2.839-0.014 4.263-0.022-0.011-4.711-0.018-9.421-0.029-14.128zM573.399 538.815c-0.921 0.004-1.835 0.011-2.753 0.014 0.007 4.711 0.018 9.418 0.025 14.128 0.918-0.004 1.835-0.007 2.753-0.014-0.007-4.707-0.018-9.418-0.025-14.128zM577.997 538.79c-0.629 0.004-1.257 0.007-1.882 0.011 0.011 4.711 0.022 9.418 0.029 14.128 0.629-0.004 1.257-0.004 1.882-0.011-0.011-4.707-0.022-9.418-0.029-14.128zM582.535 538.768c-0.571 0-1.142 0.004-1.716 0.011 0.007 4.711 0.014 9.418 0.025 14.128 0.571-0.004 1.145-0.007 1.72-0.007-0.007-4.714-0.018-9.425-0.029-14.132zM586.675 538.743c-0.466 0.004-0.932 0.004-1.398 0.007 0.007 4.711 0.018 9.418 0.025 14.128 0.466-0.004 0.932-0.004 1.398-0.007-0.007-4.707-0.018-9.418-0.025-14.128zM590.684 538.721c-0.358 0-0.712 0.004-1.069 0.007 0.011 4.711 0.018 9.418 0.029 14.128 0.358 0 0.712-0.004 1.069-0.004-0.011-4.714-0.018-9.421-0.029-14.132zM595.088 538.699c-0.264 0-0.527 0-0.798 0.004 0.011 4.711 0.018 9.418 0.029 14.128 0.264 0 0.531 0 0.798-0.004-0.007-4.711-0.018-9.421-0.029-14.128zM568.222 563.6c-1.044 0.004-2.088 0.011-3.132 0.018 0.011 4.685 0.022 9.378 0.029 14.063 1.044-0.004 2.088-0.011 3.132-0.014-0.007-4.689-0.018-9.378-0.029-14.067z" />
<glyph unicode="&#xe924;" d="M390.454 352.865c-1.553 0.011-3.107 0.018-4.66 0.025 0.007 4.689 0.018 9.378 0.025 14.067 1.553-0.007 3.107-0.018 4.66-0.025-0.007-4.693-0.014-9.382-0.025-14.067zM396.407 352.832c-1.42 0.007-2.839 0.014-4.259 0.025 0.007 4.689 0.018 9.374 0.025 14.063 1.42-0.007 2.839-0.014 4.259-0.022-0.007-4.689-0.018-9.378-0.025-14.067zM407.115 352.771c-0.914 0.007-1.832 0.011-2.749 0.018 0.007 4.685 0.018 9.374 0.025 14.063 0.918-0.004 1.835-0.011 2.749-0.014-0.007-4.689-0.018-9.378-0.025-14.067zM411.713 352.745c-0.629 0.004-1.254 0.007-1.882 0.011 0.007 4.689 0.018 9.378 0.029 14.067 0.625-0.004 1.254-0.007 1.882-0.011-0.011-4.689-0.018-9.378-0.029-14.067zM416.251 352.724c-0.571 0.004-1.145 0.007-1.72 0.011 0.007 4.685 0.018 9.378 0.025 14.063 0.574-0.004 1.145-0.004 1.72-0.007-0.007-4.693-0.014-9.382-0.025-14.067zM420.39 352.702c-0.466 0-0.932 0.004-1.398 0.007 0.011 4.689 0.018 9.378 0.029 14.063 0.466-0.004 0.932-0.004 1.398-0.007-0.011-4.693-0.022-9.378-0.029-14.063zM424.397 352.677c-0.354 0.004-0.712 0.004-1.066 0.007 0.007 4.689 0.018 9.378 0.029 14.067 0.354-0.004 0.712-0.004 1.066-0.007-0.007-4.689-0.018-9.378-0.029-14.067zM428.807 352.651c-0.267 0.004-0.531 0.004-0.798 0.007 0.007 4.685 0.018 9.374 0.025 14.063 0.267 0 0.531 0 0.798-0.004-0.007-4.689-0.018-9.378-0.025-14.067zM401.844 328.047c-1.044 0.007-2.088 0.014-3.132 0.018 0.007 4.711 0.018 9.418 0.025 14.128 1.048-0.007 2.088-0.014 3.132-0.018-0.007-4.711-0.018-9.421-0.025-14.128zM390.407 328.109c-1.553 0.007-3.107 0.018-4.66 0.025 0.007 4.711 0.018 9.418 0.025 14.128 1.553-0.007 3.107-0.018 4.66-0.025-0.007-4.707-0.018-9.418-0.025-14.128zM396.36 328.076c-1.42 0.007-2.843 0.014-4.259 0.022 0.007 4.711 0.018 9.418 0.025 14.128 1.42-0.007 2.839-0.014 4.263-0.025-0.011-4.707-0.022-9.418-0.029-14.125zM407.068 328.018c-0.918 0.004-1.832 0.011-2.749 0.014 0.007 4.711 0.018 9.418 0.025 14.128 0.918-0.004 1.835-0.011 2.753-0.014-0.014-4.711-0.018-9.421-0.029-14.128zM411.666 327.993c-0.625 0.004-1.254 0.007-1.882 0.011 0.007 4.711 0.018 9.414 0.025 14.125 0.629-0.004 1.257-0.004 1.882-0.011-0.007-4.707-0.018-9.414-0.025-14.125zM416.204 327.968c-0.574 0.004-1.145 0.004-1.72 0.011 0.007 4.711 0.018 9.414 0.029 14.125 0.571-0.004 1.145-0.007 1.72-0.011-0.011-4.707-0.022-9.414-0.029-14.125zM420.343 327.942c-0.466 0.004-0.932 0.007-1.398 0.007 0.007 4.711 0.018 9.418 0.025 14.128 0.466-0.004 0.932-0.004 1.398-0.007-0.007-4.707-0.018-9.418-0.025-14.128zM424.35 327.921c-0.354 0.004-0.712 0.004-1.066 0.007 0.007 4.711 0.018 9.418 0.029 14.128 0.358-0.004 0.712-0.007 1.066-0.007-0.007-4.707-0.018-9.418-0.029-14.128zM428.757 327.899c-0.264 0.004-0.531 0.004-0.798 0.004 0.007 4.711 0.018 9.418 0.025 14.128 0.267 0 0.531-0.004 0.798-0.004-0.004-4.711-0.014-9.421-0.025-14.128zM401.891 352.8c-1.044 0.007-2.088 0.011-3.132 0.018 0.007 4.689 0.018 9.378 0.029 14.067 1.044-0.007 2.088-0.011 3.132-0.018-0.011-4.689-0.022-9.378-0.029-14.067z" />
<glyph unicode="&#xe925;" d="M390.454 303.009c-1.553 0.011-3.107 0.018-4.66 0.029 0.007 4.685 0.018 9.374 0.025 14.063 1.553-0.011 3.107-0.018 4.66-0.025-0.007-4.689-0.014-9.378-0.025-14.067zM396.407 302.977c-1.42 0.007-2.839 0.014-4.259 0.022 0.007 4.689 0.018 9.378 0.025 14.067 1.42-0.007 2.839-0.014 4.259-0.022-0.007-4.689-0.018-9.378-0.025-14.067zM407.115 302.915c-0.914 0.007-1.832 0.011-2.749 0.014 0.007 4.689 0.018 9.378 0.025 14.067 0.918-0.004 1.835-0.011 2.749-0.014-0.007-4.689-0.018-9.378-0.025-14.067zM411.713 302.894c-0.629 0.004-1.254 0.007-1.882 0.011 0.007 4.689 0.018 9.374 0.029 14.067 0.625-0.004 1.254-0.007 1.882-0.014-0.011-4.689-0.018-9.378-0.029-14.063zM416.251 302.868c-0.571 0.004-1.145 0.007-1.72 0.011 0.007 4.685 0.018 9.374 0.025 14.063 0.574 0 1.145-0.007 1.72-0.011-0.007-4.689-0.014-9.374-0.025-14.063zM420.39 302.843c-0.466 0.004-0.932 0.007-1.398 0.011 0.011 4.685 0.018 9.374 0.029 14.063 0.466 0 0.932-0.004 1.398-0.007-0.011-4.689-0.022-9.378-0.029-14.067zM424.397 302.821c-0.354 0.004-0.712 0.004-1.066 0.007 0.007 4.689 0.018 9.378 0.029 14.063 0.354 0 0.712 0 1.066-0.004-0.007-4.689-0.018-9.378-0.029-14.067zM428.807 302.796c-0.267 0.004-0.531 0.004-0.798 0.007 0.007 4.685 0.018 9.374 0.025 14.063 0.267 0 0.531-0.004 0.798-0.004-0.007-4.689-0.018-9.378-0.025-14.067zM401.844 278.192c-1.044 0.007-2.088 0.011-3.132 0.018 0.007 4.711 0.018 9.418 0.025 14.125 1.048-0.004 2.088-0.011 3.132-0.014-0.007-4.711-0.018-9.421-0.025-14.128zM390.407 278.253c-1.553 0.007-3.107 0.018-4.66 0.025 0.007 4.711 0.018 9.418 0.025 14.128 1.553-0.011 3.107-0.018 4.66-0.025-0.007-4.707-0.018-9.418-0.025-14.128zM396.36 278.224c-1.42 0.007-2.843 0.014-4.259 0.022 0.007 4.711 0.018 9.418 0.025 14.128 1.42-0.007 2.839-0.018 4.263-0.025-0.011-4.711-0.022-9.421-0.029-14.125zM407.068 278.163c-0.918 0.004-1.832 0.011-2.749 0.014 0.007 4.711 0.018 9.418 0.025 14.128 0.918-0.007 1.835-0.011 2.753-0.018-0.014-4.711-0.018-9.414-0.029-14.125zM411.666 278.138c-0.625 0.004-1.254 0.007-1.882 0.011 0.007 4.711 0.018 9.414 0.025 14.125 0.629 0 1.257-0.007 1.882-0.011-0.007-4.703-0.018-9.414-0.025-14.125zM416.204 278.112c-0.574 0.004-1.145 0.004-1.72 0.007 0.007 4.711 0.018 9.418 0.029 14.128 0.571-0.004 1.145-0.007 1.72-0.011-0.011-4.707-0.022-9.414-0.029-14.125zM420.343 278.087c-0.466 0.004-0.932 0.004-1.398 0.007 0.007 4.711 0.018 9.418 0.025 14.128 0.466-0.004 0.932-0.007 1.398-0.007-0.007-4.707-0.018-9.418-0.025-14.128zM424.35 278.069c-0.354 0.004-0.712 0.004-1.066 0.007 0.007 4.711 0.018 9.418 0.029 14.125 0.358 0 0.712-0.004 1.066-0.004-0.007-4.711-0.018-9.421-0.029-14.128zM428.757 278.044c-0.264 0.004-0.531 0.004-0.798 0.004 0.007 4.711 0.018 9.418 0.025 14.128 0.267 0 0.531-0.004 0.798-0.004-0.004-4.711-0.014-9.421-0.025-14.128zM401.891 302.944c-1.044 0.007-2.088 0.011-3.132 0.018 0.007 4.689 0.018 9.378 0.029 14.067 1.044-0.007 2.088-0.011 3.132-0.018-0.011-4.689-0.022-9.378-0.029-14.067z" />
<glyph unicode="&#xe926;" d="M556.789 465.974c-1.557 0.007-3.107 0.018-4.66 0.025 0.007 4.689 0.018 9.374 0.025 14.063 1.557-0.007 3.107-0.018 4.66-0.025-0.007-4.685-0.018-9.374-0.025-14.063zM562.739 465.941c-1.423 0.007-2.839 0.014-4.263 0.022 0.011 4.689 0.018 9.378 0.029 14.063 1.423-0.007 2.839-0.014 4.259-0.022-0.007-4.685-0.014-9.374-0.025-14.063zM573.446 465.883c-0.918 0.004-1.835 0.011-2.753 0.014 0.011 4.689 0.022 9.374 0.029 14.063 0.918-0.004 1.835-0.011 2.749-0.014-0.007-4.689-0.014-9.374-0.025-14.063zM578.048 465.858c-0.629 0.004-1.257 0.007-1.882 0.011 0.007 4.689 0.018 9.374 0.029 14.063 0.629-0.004 1.254-0.007 1.882-0.011-0.011-4.685-0.022-9.378-0.029-14.063zM582.582 465.833c-0.571 0.004-1.145 0.004-1.72 0.007 0.011 4.689 0.018 9.378 0.025 14.067 0.574-0.004 1.145-0.007 1.723-0.011-0.011-4.689-0.018-9.378-0.029-14.063zM586.721 465.811c-0.466 0-0.932 0.004-1.398 0.007 0.011 4.685 0.018 9.374 0.029 14.063 0.466-0.004 0.932-0.004 1.398-0.007-0.011-4.689-0.018-9.374-0.029-14.063zM590.728 465.786c-0.354 0-0.708 0.004-1.066 0.007 0.011 4.685 0.018 9.374 0.029 14.063 0.358 0 0.708-0.004 1.066-0.004-0.007-4.689-0.018-9.378-0.029-14.067zM595.138 465.764c-0.264 0-0.531 0.004-0.798 0.004 0.007 4.689 0.018 9.378 0.025 14.063 0.267 0 0.531 0 0.802-0.004-0.011-4.689-0.018-9.378-0.029-14.063zM568.175 441.156c-1.044 0.007-2.088 0.011-3.132 0.018 0.007 4.711 0.018 9.418 0.029 14.128 1.044-0.004 2.084-0.011 3.128-0.014-0.007-4.714-0.018-9.421-0.025-14.132zM556.738 441.221c-1.553 0.007-3.103 0.018-4.66 0.025 0.011 4.711 0.018 9.418 0.029 14.128 1.553-0.007 3.103-0.018 4.66-0.025-0.011-4.711-0.018-9.421-0.029-14.128zM562.692 441.189c-1.42 0.007-2.839 0.014-4.259 0.022 0.007 4.711 0.018 9.418 0.025 14.128 1.423-0.007 2.839-0.014 4.263-0.022-0.011-4.711-0.018-9.421-0.029-14.128zM573.399 441.127c-0.921 0.004-1.835 0.011-2.753 0.014 0.007 4.711 0.018 9.418 0.025 14.128 0.918-0.004 1.835-0.011 2.753-0.014-0.007-4.707-0.018-9.418-0.025-14.128zM577.997 441.102c-0.629 0.004-1.257 0.007-1.882 0.011 0.011 4.707 0.022 9.418 0.029 14.128 0.629-0.004 1.257-0.007 1.882-0.011-0.011-4.711-0.022-9.418-0.029-14.128zM582.535 441.080c-0.571 0-1.142 0.004-1.716 0.011 0.007 4.707 0.014 9.414 0.025 14.125 0.571-0.004 1.145-0.004 1.72-0.011-0.007-4.711-0.018-9.418-0.029-14.125zM586.675 441.055c-0.466 0.004-0.932 0.007-1.398 0.007 0.007 4.711 0.018 9.418 0.025 14.128 0.466-0.004 0.932-0.004 1.398-0.007-0.007-4.711-0.018-9.421-0.025-14.128zM590.684 441.033c-0.358 0.004-0.712 0.004-1.069 0.007 0.011 4.707 0.018 9.418 0.029 14.128 0.358 0 0.712-0.004 1.069-0.004-0.011-4.714-0.018-9.421-0.029-14.132zM595.088 441.008c-0.264 0.004-0.527 0.004-0.798 0.004 0.011 4.711 0.018 9.418 0.029 14.128 0.264 0 0.531 0 0.798-0.004-0.007-4.711-0.018-9.418-0.029-14.128zM568.222 465.912c-1.044 0.007-2.088 0.011-3.132 0.018 0.011 4.689 0.022 9.378 0.029 14.063 1.044-0.004 2.088-0.011 3.132-0.018-0.007-4.689-0.018-9.374-0.029-14.063z" />
<glyph unicode="&#xe927;" d="M556.789 416.794c-1.557 0.007-3.107 0.018-4.66 0.025 0.007 4.689 0.018 9.378 0.025 14.067 1.557-0.011 3.107-0.018 4.66-0.025-0.007-4.689-0.018-9.378-0.025-14.067zM562.739 416.761c-1.423 0.007-2.839 0.014-4.263 0.022 0.011 4.689 0.018 9.378 0.029 14.067 1.423-0.007 2.839-0.014 4.259-0.025-0.007-4.689-0.014-9.378-0.025-14.063zM573.446 416.704c-0.918 0.004-1.835 0.011-2.753 0.014 0.011 4.689 0.022 9.378 0.029 14.067 0.918-0.004 1.835-0.011 2.749-0.014-0.007-4.693-0.014-9.382-0.025-14.067zM578.048 416.678c-0.629 0.004-1.257 0.007-1.882 0.011 0.007 4.689 0.018 9.374 0.029 14.067 0.629-0.007 1.254-0.011 1.882-0.014-0.011-4.689-0.022-9.374-0.029-14.063zM582.582 416.653c-0.571 0.004-1.145 0.004-1.72 0.007 0.011 4.689 0.018 9.378 0.025 14.067 0.574-0.004 1.145-0.007 1.723-0.011-0.011-4.685-0.018-9.378-0.029-14.063zM586.721 416.628c-0.466 0.004-0.932 0.007-1.398 0.011 0.011 4.685 0.018 9.374 0.029 14.063 0.466 0 0.932-0.004 1.398-0.007-0.011-4.689-0.018-9.378-0.029-14.067zM590.728 416.606c-0.354 0-0.708 0.004-1.066 0.007 0.011 4.689 0.018 9.378 0.029 14.063 0.358 0 0.708-0.004 1.066-0.004-0.007-4.689-0.018-9.378-0.029-14.067zM595.138 416.581c-0.264 0.004-0.531 0.004-0.798 0.004 0.007 4.689 0.018 9.378 0.025 14.067 0.267 0 0.531-0.004 0.802-0.004-0.011-4.689-0.018-9.378-0.029-14.067zM568.175 391.976c-1.044 0.004-2.088 0.011-3.132 0.018 0.007 4.711 0.018 9.418 0.029 14.125 1.044-0.004 2.084-0.011 3.128-0.014-0.007-4.711-0.018-9.421-0.025-14.128zM556.738 392.038c-1.553 0.007-3.103 0.014-4.66 0.025 0.011 4.711 0.018 9.418 0.029 14.128 1.553-0.011 3.103-0.018 4.66-0.025-0.011-4.707-0.018-9.418-0.029-14.128zM562.692 392.005c-1.42 0.011-2.839 0.018-4.259 0.025 0.007 4.711 0.018 9.418 0.025 14.128 1.423-0.007 2.839-0.018 4.263-0.025-0.011-4.711-0.018-9.421-0.029-14.128zM573.399 391.948c-0.921 0.004-1.835 0.011-2.753 0.014 0.007 4.711 0.018 9.418 0.025 14.128 0.918-0.007 1.835-0.011 2.753-0.018-0.007-4.711-0.018-9.414-0.025-14.125zM577.997 391.922c-0.629 0.004-1.257 0.007-1.882 0.011 0.011 4.707 0.022 9.414 0.029 14.125 0.629-0.004 1.257-0.007 1.882-0.011-0.011-4.707-0.022-9.414-0.029-14.125zM582.535 391.897c-0.571 0-1.142 0.004-1.716 0.007 0.007 4.711 0.014 9.418 0.025 14.128 0.571-0.004 1.145-0.007 1.72-0.011-0.007-4.707-0.018-9.414-0.029-14.125zM586.675 391.872c-0.466 0.004-0.932 0.004-1.398 0.007 0.007 4.711 0.018 9.418 0.025 14.128 0.466-0.004 0.932-0.007 1.398-0.007-0.007-4.707-0.018-9.418-0.025-14.128zM590.684 391.854c-0.358 0-0.712 0.004-1.069 0.007 0.011 4.707 0.018 9.414 0.029 14.125 0.358 0 0.712-0.004 1.069-0.007-0.011-4.707-0.018-9.418-0.029-14.125zM595.088 391.828c-0.264 0-0.527 0.004-0.798 0.004 0.011 4.711 0.018 9.418 0.029 14.128 0.264-0.004 0.531-0.004 0.798-0.004-0.007-4.711-0.018-9.421-0.029-14.128zM568.222 416.729c-1.044 0.007-2.088 0.011-3.132 0.018 0.011 4.689 0.022 9.378 0.029 14.067 1.044-0.007 2.088-0.011 3.132-0.018-0.007-4.689-0.018-9.378-0.029-14.067z" />
<glyph unicode="&#xe928;" d="M556.789 515.153c-1.557 0.007-3.107 0.018-4.66 0.025 0.007 4.685 0.018 9.374 0.025 14.063 1.557-0.007 3.107-0.014 4.66-0.025-0.007-4.685-0.018-9.374-0.025-14.063zM562.739 515.125c-1.423 0.007-2.839 0.014-4.263 0.022 0.011 4.689 0.018 9.378 0.029 14.067 1.423-0.007 2.839-0.014 4.259-0.025-0.007-4.689-0.014-9.378-0.025-14.063zM573.446 515.067c-0.918 0.004-1.835 0.011-2.753 0.014 0.011 4.689 0.022 9.378 0.029 14.067 0.918-0.004 1.835-0.011 2.749-0.014-0.007-4.693-0.014-9.382-0.025-14.067zM578.048 515.038c-0.629 0.004-1.257 0.007-1.882 0.011 0.007 4.689 0.018 9.374 0.029 14.067 0.629-0.004 1.254-0.007 1.882-0.011-0.011-4.689-0.022-9.378-0.029-14.067zM582.582 515.013c-0.571 0.004-1.145 0.007-1.72 0.011 0.011 4.685 0.018 9.374 0.025 14.063 0.574-0.004 1.145-0.007 1.723-0.011-0.011-4.685-0.018-9.374-0.029-14.063zM586.721 514.991c-0.466 0.004-0.932 0.004-1.398 0.007 0.011 4.685 0.018 9.374 0.029 14.063 0.466-0.004 0.932-0.004 1.398-0.007-0.011-4.685-0.018-9.374-0.029-14.063zM590.728 514.969c-0.354 0-0.708 0.004-1.066 0.004 0.011 4.689 0.018 9.378 0.029 14.063 0.358 0 0.708-0.004 1.066-0.004-0.007-4.689-0.018-9.374-0.029-14.063zM595.138 514.944c-0.264 0-0.531 0-0.798 0.004 0.007 4.685 0.018 9.374 0.025 14.063 0.267 0 0.531-0.004 0.802-0.004-0.011-4.685-0.018-9.374-0.029-14.063zM568.175 490.336c-1.044 0.004-2.088 0.011-3.132 0.018 0.007 4.711 0.018 9.418 0.029 14.128 1.044-0.004 2.084-0.011 3.128-0.014-0.007-4.711-0.018-9.421-0.025-14.132zM556.738 490.401c-1.553 0.007-3.103 0.014-4.66 0.025 0.011 4.711 0.018 9.418 0.029 14.128 1.553-0.007 3.103-0.018 4.66-0.025-0.011-4.711-0.018-9.418-0.029-14.128zM562.692 490.368c-1.42 0.007-2.839 0.018-4.259 0.025 0.007 4.711 0.018 9.418 0.025 14.128 1.423-0.007 2.839-0.014 4.263-0.022-0.011-4.714-0.018-9.425-0.029-14.132zM573.399 490.307c-0.921 0.004-1.835 0.007-2.753 0.014 0.007 4.711 0.018 9.418 0.025 14.128 0.918-0.004 1.835-0.011 2.753-0.014-0.007-4.711-0.018-9.418-0.025-14.128zM577.997 490.285c-0.629 0.004-1.257 0.007-1.882 0.011 0.011 4.711 0.022 9.418 0.029 14.128 0.629-0.004 1.257-0.007 1.882-0.011-0.011-4.711-0.022-9.421-0.029-14.128zM582.535 490.26c-0.571 0.004-1.142 0.004-1.716 0.007 0.007 4.711 0.014 9.418 0.025 14.128 0.571 0 1.145-0.004 1.72-0.007-0.007-4.711-0.018-9.418-0.029-14.128zM586.675 490.235c-0.466 0-0.932 0.004-1.398 0.007 0.007 4.711 0.018 9.418 0.025 14.128 0.466 0 0.932-0.004 1.398-0.007-0.007-4.711-0.018-9.418-0.025-14.128zM590.684 490.213c-0.358 0.004-0.712 0.004-1.069 0.007 0.011 4.711 0.018 9.418 0.029 14.128 0.358 0 0.712-0.004 1.069-0.004-0.011-4.711-0.018-9.421-0.029-14.132zM595.088 490.188c-0.264 0-0.527 0.004-0.798 0.004 0.011 4.711 0.018 9.418 0.029 14.128 0.264 0 0.531 0 0.798-0.004-0.007-4.707-0.018-9.418-0.029-14.128zM568.222 515.092c-1.044 0.007-2.088 0.011-3.132 0.018 0.011 4.689 0.022 9.374 0.029 14.063 1.044-0.004 2.088-0.011 3.132-0.018-0.007-4.685-0.018-9.374-0.029-14.063z" />
<glyph unicode="&#xe929;" d="M556.789 367.614c-1.557 0.007-3.107 0.018-4.66 0.025 0.007 4.689 0.018 9.378 0.025 14.067 1.557-0.011 3.107-0.018 4.66-0.025-0.007-4.696-0.018-9.382-0.025-14.067zM562.739 367.582c-1.423 0.007-2.839 0.014-4.263 0.022 0.011 4.689 0.018 9.378 0.029 14.067 1.423-0.007 2.839-0.014 4.259-0.025-0.007-4.689-0.014-9.378-0.025-14.063zM573.446 367.52c-0.918 0.004-1.835 0.011-2.753 0.014 0.011 4.689 0.022 9.378 0.029 14.067 0.918-0.007 1.835-0.011 2.749-0.014-0.007-4.689-0.014-9.378-0.025-14.067zM578.048 367.495c-0.629 0.004-1.257 0.007-1.882 0.007 0.007 4.693 0.018 9.378 0.029 14.067 0.629-0.004 1.254-0.007 1.882-0.011-0.011-4.685-0.022-9.378-0.029-14.063zM582.582 367.473c-0.571 0-1.145 0.004-1.72 0.007 0.011 4.689 0.018 9.378 0.025 14.067 0.574-0.004 1.145-0.007 1.723-0.011-0.011-4.693-0.018-9.378-0.029-14.063zM586.721 367.448c-0.466 0.004-0.932 0.007-1.398 0.007 0.011 4.689 0.018 9.378 0.029 14.067 0.466-0.004 0.932-0.007 1.398-0.007-0.011-4.693-0.018-9.378-0.029-14.067zM590.728 367.426c-0.354 0-0.708 0.004-1.066 0.007 0.011 4.685 0.018 9.374 0.029 14.063 0.358 0 0.708-0.004 1.066-0.004-0.007-4.689-0.018-9.378-0.029-14.067zM595.138 367.401c-0.264 0.004-0.531 0.004-0.798 0.004 0.007 4.689 0.018 9.378 0.025 14.067 0.267 0 0.531-0.004 0.802-0.004-0.011-4.689-0.018-9.378-0.029-14.067zM568.175 342.797c-1.044 0.004-2.088 0.011-3.132 0.018 0.007 4.707 0.018 9.414 0.029 14.125 1.044-0.004 2.084-0.011 3.128-0.014-0.007-4.711-0.018-9.421-0.025-14.128zM556.738 342.855c-1.553 0.011-3.103 0.018-4.66 0.029 0.011 4.711 0.018 9.418 0.029 14.128 1.553-0.011 3.103-0.018 4.66-0.029-0.011-4.707-0.018-9.418-0.029-14.128zM562.692 342.822c-1.42 0.007-2.839 0.018-4.259 0.025 0.007 4.711 0.018 9.418 0.025 14.128 1.423-0.007 2.839-0.018 4.263-0.025-0.011-4.707-0.018-9.418-0.029-14.128zM573.399 342.768c-0.921 0.004-1.835 0.007-2.753 0.014 0.007 4.711 0.018 9.418 0.025 14.125 0.918-0.004 1.835-0.007 2.753-0.014-0.007-4.707-0.018-9.418-0.025-14.125zM577.997 342.739c-0.629 0.004-1.257 0.007-1.882 0.011 0.011 4.711 0.022 9.418 0.029 14.128 0.629-0.004 1.257-0.007 1.882-0.011-0.011-4.711-0.022-9.418-0.029-14.128zM582.535 342.714c-0.571 0.004-1.142 0.007-1.716 0.011 0.007 4.711 0.014 9.418 0.025 14.128 0.571-0.004 1.145-0.007 1.72-0.011-0.007-4.711-0.018-9.418-0.029-14.128zM586.675 342.692c-0.466 0.004-0.932 0.004-1.398 0.007 0.007 4.711 0.018 9.418 0.025 14.128 0.466-0.004 0.932-0.007 1.398-0.007-0.007-4.707-0.018-9.418-0.025-14.128zM590.684 342.67c-0.358 0-0.712 0.004-1.069 0.004 0.011 4.711 0.018 9.418 0.029 14.128 0.358 0 0.712-0.004 1.069-0.007-0.011-4.707-0.018-9.414-0.029-14.125zM595.088 342.649c-0.264 0-0.527 0.004-0.798 0.004 0.011 4.711 0.018 9.418 0.029 14.128 0.264-0.004 0.531-0.004 0.798-0.007-0.007-4.707-0.018-9.418-0.029-14.125zM568.222 367.549c-1.044 0.007-2.088 0.011-3.132 0.018 0.011 4.689 0.022 9.378 0.029 14.063 1.044-0.004 2.088-0.011 3.132-0.014-0.007-4.689-0.018-9.378-0.029-14.067z" />
<glyph unicode="&#xe92a;" d="M556.789 318.431c-1.557 0.007-3.107 0.018-4.66 0.025 0.007 4.689 0.018 9.378 0.025 14.063 1.557-0.007 3.107-0.014 4.66-0.025-0.007-4.689-0.018-9.378-0.025-14.063zM562.739 318.398c-1.423 0.011-2.839 0.018-4.263 0.025 0.011 4.689 0.018 9.378 0.029 14.067 1.423-0.011 2.839-0.018 4.259-0.025-0.007-4.693-0.014-9.382-0.025-14.067zM573.446 318.341c-0.918 0.004-1.835 0.011-2.753 0.014 0.011 4.689 0.022 9.378 0.029 14.063 0.918-0.004 1.835-0.007 2.749-0.014-0.007-4.689-0.014-9.374-0.025-14.063zM578.048 318.315c-0.629 0.004-1.257 0.004-1.882 0.011 0.007 4.685 0.018 9.374 0.029 14.063 0.629-0.004 1.254-0.007 1.882-0.011-0.011-4.689-0.022-9.378-0.029-14.063zM582.582 318.286c-0.571 0.007-1.145 0.007-1.72 0.011 0.011 4.689 0.018 9.378 0.025 14.067 0.574-0.004 1.145-0.007 1.723-0.011-0.011-4.689-0.018-9.378-0.029-14.067zM586.721 318.265c-0.466 0.004-0.932 0.004-1.398 0.007 0.011 4.689 0.018 9.378 0.029 14.067 0.466-0.004 0.932-0.007 1.398-0.007-0.011-4.689-0.018-9.378-0.029-14.067zM590.728 318.247c-0.354 0-0.708 0.004-1.066 0.004 0.011 4.693 0.018 9.378 0.029 14.067 0.358 0 0.708-0.004 1.066-0.007-0.007-4.689-0.018-9.378-0.029-14.063zM595.138 318.221c-0.264 0-0.531 0.004-0.798 0.004 0.007 4.689 0.018 9.378 0.025 14.067 0.267-0.004 0.531-0.004 0.802-0.007-0.011-4.689-0.018-9.374-0.029-14.063zM568.175 293.613c-1.044 0.004-2.088 0.011-3.132 0.014 0.007 4.711 0.018 9.418 0.029 14.128 1.044-0.004 2.084-0.011 3.128-0.018-0.007-4.707-0.018-9.418-0.025-14.125zM556.738 293.675c-1.553 0.011-3.103 0.018-4.66 0.029 0.011 4.711 0.018 9.418 0.029 14.125 1.553-0.007 3.103-0.014 4.66-0.025-0.011-4.711-0.018-9.418-0.029-14.128zM562.692 293.642c-1.42 0.007-2.839 0.018-4.259 0.025 0.007 4.711 0.018 9.418 0.025 14.125 1.423-0.007 2.839-0.014 4.263-0.022-0.011-4.707-0.018-9.418-0.029-14.128zM573.399 293.581c-0.921 0.007-1.835 0.011-2.753 0.018 0.007 4.711 0.018 9.418 0.025 14.125 0.918-0.004 1.835-0.007 2.753-0.014-0.007-4.707-0.018-9.418-0.025-14.128zM577.997 293.559c-0.629 0.004-1.257 0.007-1.882 0.011 0.011 4.711 0.022 9.418 0.029 14.128 0.629-0.004 1.257-0.007 1.882-0.011-0.011-4.711-0.022-9.421-0.029-14.128zM582.535 293.534c-0.571 0.004-1.142 0.007-1.716 0.011 0.007 4.711 0.014 9.418 0.025 14.128 0.571-0.004 1.145-0.007 1.72-0.011-0.007-4.711-0.018-9.418-0.029-14.128zM586.675 293.512c-0.466 0.004-0.932 0.004-1.398 0.007 0.007 4.711 0.018 9.418 0.025 14.128 0.466-0.004 0.932-0.007 1.398-0.007-0.007-4.711-0.018-9.418-0.025-14.128zM590.684 293.487c-0.358 0.004-0.712 0.004-1.069 0.007 0.011 4.711 0.018 9.418 0.029 14.128 0.358-0.004 0.712-0.004 1.069-0.007-0.011-4.707-0.018-9.418-0.029-14.128zM595.088 293.465c-0.264 0-0.527 0-0.798 0.004 0.011 4.711 0.018 9.418 0.029 14.125 0.264 0 0.531 0 0.798-0.004-0.007-4.703-0.018-9.414-0.029-14.125zM568.222 318.369c-1.044 0.004-2.088 0.011-3.132 0.018 0.011 4.689 0.022 9.378 0.029 14.063 1.044-0.004 2.088-0.011 3.132-0.014-0.007-4.689-0.018-9.378-0.029-14.067z" />
<glyph unicode="&#xe92b;" d="M346.339 647.419c0.426-0.224 0.853-0.452 1.272-0.683 5.097-2.814 8.551-5.617 13.037-9.233 1.004-0.798 2.023-1.6 3.168-2.196 4.703-2.395 7.575-4.581 10.837-8.818 2.774-3.851 4.129-7.243 5.003-11.91 0.444-2.081 0.686-4.27 0.842-6.387 0.387-7.207-0.419-12.759-2.702-19.63-2.478-6.687-5.332-11.437-10.028-16.809-4.945-5.336-9.479-8.72-16.010-11.917-6.983-3.164-12.774-4.559-20.428-4.768-3.316-0.014-6.224 0.202-9.468 0.899-3.959 0.69-7.452 1.832-11.17 3.37-6.748 3.006-11.444 6.3-16.689 11.527-5.047 5.343-8.128 10.133-10.949 16.935-2.684 7.084-3.656 12.81-3.544 20.396 0.34 7.471 1.658 13.073 4.761 19.879 3.121 6.369 6.387 10.765 11.589 15.591 5.238 4.584 9.844 7.33 16.379 9.725 4.53 1.517 8.276 2.243 13.045 2.532 3.71 0.524 10.447 1.188 1.929 3.269-5.867 0.896-11.242 0.307-17.018-0.965-7.593-2.030-13.019-4.833-19.269-9.627-6.34-5.187-10.335-10.104-14.273-17.304-3.995-7.821-5.744-14.334-6.419-23.102-0.408-8.977 0.614-15.808 3.612-24.29 3.19-8.197 6.813-13.955 12.756-20.439 6.199-6.38 11.813-10.321 19.901-14.034 8.551-3.62 15.537-5.065 24.828-5.224 9.291 0.119 16.292 1.55 24.872 5.126 8.121 3.67 13.774 7.615 20.035 13.955 6.026 6.463 9.707 12.235 13.019 20.432 3.143 8.515 4.255 15.396 4.024 24.474-0.491 8.822-2.113 15.425-5.845 23.438-0.022 0.061-0.090 0.177-0.101 0.228-3.54 7.976-6.885 12.857-12.918 19.424-3.143 3.186-6.076 5.621-9.775 8.153-3.128 2.009-6.13 3.522-9.566 4.967-5.422 2.121-11.805 3.912-17.672 3.956-4.429-0.087-7.304-4.375-5.563-8.533 3.208-7.676 6.524-9.887 14.5-12.409z" />
<glyph unicode="&#xe92c;" d="M610.361 720.633c2.821-1.47 5.643-2.991 8.431-4.523 33.733-18.651 56.647-37.27 86.363-61.191 6.661-5.292 13.42-10.621 21.006-14.536 31.208-15.833 50.267-30.305 71.931-58.399 18.402-25.504 27.404-48.017 33.191-78.939 2.89-14.266 4.526-27.801 5.599-42.352 2.568-47.785-2.756-84.56-17.9-130.131-16.411-44.321-35.34-75.854-66.458-111.465-32.786-35.409-62.82-57.803-106.144-79.047-46.29-20.995-84.694-30.236-135.452-31.634-22.061-0.094-41.211 1.362-62.777 5.961-26.714 4.815-48.862 11.921-74.080 22.35-44.715 19.919-75.897 41.781-110.653 76.457-33.451 35.416-53.923 67.206-72.599 112.285-17.802 46.933-24.232 84.983-23.488 135.224 2.258 49.534 11.022 86.659 31.594 131.8 20.656 42.164 42.396 71.443 76.84 103.363 34.651 30.33 65.331 48.634 108.604 64.457 30.077 10.071 54.815 14.851 86.482 16.762 24.557 3.49 69.29 7.904 12.795 21.736-38.389 6.076-75.139 1.969-112.881-6.336-50.397-13.438-86.33-32.006-127.83-63.788-42.070-34.419-68.564-66.982-94.704-114.749-26.512-51.838-38.137-95.119-42.609-153.24-2.724-59.547 4.068-104.894 23.947-161.133 21.173-54.364 45.177-92.583 84.618-135.607 41.088-42.294 78.375-68.503 132.017-93.103 56.69-24.034 103.121-33.592 164.724-34.679 61.682 0.802 108.037 10.288 164.998 34.026 53.955 24.398 91.29 50.466 132.916 92.583 39.986 42.912 64.363 81.128 86.355 135.55 20.844 56.488 28.224 102.134 26.689 162.365-3.291 58.536-14.020 102.304-38.776 155.472-0.148 0.401-0.6 1.174-0.676 1.492-23.6 53.045-45.506 85.109-85.673 128.87-20.858 21.126-40.297 37.284-64.836 54.096-20.298 13.182-41.149 23.553-63.456 32.931-35.965 14.074-78.31 25.945-117.238 26.237-29.431-0.578-48.425-29.149-36.901-56.759 21.191-50.903 43.075-65.667 96.029-82.403z" />
<glyph unicode="&#xe92d;" horiz-adv-x="3002" d="M938.379 710.565c-14.953 0-24.937 11.742-24.937 25.761 0 14.032 10.433 25.325 25.858 25.325 15.413 0 25.398-11.293 25.398-25.325 0-14.020-9.985-25.761-25.858-25.761h-0.46zM919.355 670.287h39.915v-218.875h-39.915v218.875z" />
<glyph unicode="&#xe92e;" horiz-adv-x="3002" d="M1034.566 611.069c0 23.047-0.448 41.138-1.818 59.23h35.383l2.266-35.734h0.897c10.881 20.357 36.304 40.726 72.583 40.726 30.39 0 77.551-18.103 77.551-93.182v-130.686h-39.902v126.154c0 35.261-13.159 65.119-50.796 65.119-25.858 0-46.276-18.54-53.534-40.714-1.818-4.944-2.714-12.19-2.714-18.527v-132.043h-39.915v159.658z" />
<glyph unicode="&#xe92f;" horiz-adv-x="3002" d="M1341.656 722.755v-52.468h57.157v-30.293h-57.157v-118.059c0-27.106 7.707-42.471 29.93-42.471 10.893 0 17.243 0.885 23.132 2.714l1.818-30.293c-7.707-2.714-19.957-5.441-35.383-5.441-18.588 0-33.565 6.349-43.101 16.722-10.869 12.239-15.401 31.675-15.401 57.448v119.392h-34.025v30.293h34.025v40.266l39.006 12.19z" />
<glyph unicode="&#xe930;" horiz-adv-x="3002" d="M1472.766 554.069c0.897-53.813 34.959-75.976 74.861-75.976 28.561 0 46.264 4.956 60.756 10.845l7.295-28.027c-14.056-6.325-38.582-14.008-73.504-14.008-67.118 0-107.953 44.749-107.953 110.34 0 66.476 39.454 118.483 103.409 118.483 71.686 0 90.286-62.865 90.286-103.094 0-8.143-0.473-14.492-1.369-19.024l-153.781 0.46zM1589.347 582.557c0.448 24.889-10.433 64.682-54.879 64.682-40.823 0-58.054-37.103-61.229-64.682h116.108z" />
<glyph unicode="&#xe931;" horiz-adv-x="3002" d="M1686.843 601.993c0 25.798-0.4 47.96-1.769 68.305h34.91l1.842-42.968h1.321c9.985 29.409 34.51 47.96 61.253 47.96 4.096 0 7.246-0.473 10.881-1.369v-37.091c-4.544 0.46-8.615 0.909-14.056 0.909-28.112 0-48.094-21.254-53.534-50.65-0.897-5.889-1.345-12.202-1.345-19v-116.666h-39.902l0.4 150.57z" />
<glyph unicode="&#xe932;" horiz-adv-x="3002" d="M1902.786 722.755v-52.468h57.182v-30.293h-57.182v-118.059c0-27.106 7.719-42.471 29.966-42.471 10.857 0 17.231 0.885 23.12 2.714l1.793-30.293c-7.695-2.714-19.933-5.441-35.358-5.441-18.6 0-33.565 6.349-43.101 16.722-10.881 12.239-15.425 31.675-15.425 57.448v119.392h-34.013v30.293h34.013v40.266l39.006 12.19z" />
<glyph unicode="&#xe933;" horiz-adv-x="3002" d="M2014.374 601.993c0 25.798-0.424 47.96-1.818 68.305h34.934l1.818-42.968h1.369c9.985 29.409 34.462 47.96 61.229 47.96 4.096 0 7.27-0.473 10.881-1.369v-37.091c-4.544 0.46-8.615 0.909-14.056 0.909-28.112 0-48.069-21.254-53.534-50.65-0.872-5.889-1.345-12.202-1.345-19v-116.666h-39.902l0.424 150.57z" />
<glyph unicode="&#xe934;" horiz-adv-x="3002" d="M2323.318 503.867c0-18.988 0.872-37.54 3.151-52.456h-35.855l-3.599 27.567h-1.369c-11.766-17.182-35.831-32.559-67.118-32.559-44.446 0-67.142 31.202-67.142 62.865 0 52.916 47.173 81.853 131.994 81.38v4.544c0 18.091-4.968 51.099-49.863 50.663-20.878 0-42.193-5.889-57.606-16.298l-9.064 26.682c18.128 11.305 44.871 19.012 72.559 19.012 67.566 0 83.925-45.694 83.925-89.571v-81.828zM2284.288 563.121c-43.55 0.897-92.988-6.786-92.988-49.293 0-26.222 17.231-38 37.152-38 29.057 0 47.67 18.103 54.031 36.606 1.345 4.096 1.793 8.603 1.793 12.675v38.012z" />
<glyph unicode="&#xe935;" horiz-adv-x="3002" d="M2552.833 459.093c-10.433-4.956-33.577-12.663-63.022-12.663-66.27 0-109.359 44.761-109.359 112.158 0 67.36 46.288 116.69 117.95 116.69 23.568 0 44.471-5.913 55.352-11.778l-9.112-30.293c-9.512 4.956-24.453 10.409-46.24 10.409-50.335 0-77.551-37.527-77.551-83.222 0-50.663 32.656-81.877 76.182-81.877 22.696 0 37.673 5.441 48.99 10.421l6.81-29.845z" />
<glyph unicode="&#xe936;" horiz-adv-x="3002" d="M2648.572 569.906h0.872c5.441 7.682 12.711 17.631 19.073 24.877l64.876 75.503h47.621l-84.821-90.008 96.587-128.856h-48.518l-75.285 105.36-20.406-23.071v-82.289h-39.951v321.085h39.951v-202.602z" />
<glyph unicode="&#xe937;" horiz-adv-x="3002" d="M943.432 294.807l2.157-13.196c-4.217-0.872-7.961-1.321-11.293-1.321-5.404 0-9.621 0.86-12.614 2.581-2.993 1.709-5.089 3.95-6.301 6.749-1.224 2.799-1.83 8.676-1.83 17.631v50.747h-10.966v11.608h10.966v21.835l14.868 8.955v-30.79h15.013v-11.608h-15.013v-51.559c0-4.265 0.254-6.98 0.788-8.203 0.509-1.224 1.369-2.205 2.569-2.908 1.175-0.739 2.884-1.091 5.089-1.091 1.672-0.012 3.853 0.17 6.568 0.57z" />
<glyph unicode="&#xe938;" horiz-adv-x="3002" d="M1018.378 309.844l15.437-1.915c-2.436-9.027-6.943-16.031-13.523-21.011-6.592-4.956-15.001-7.452-25.24-7.452-12.893 0-23.108 3.962-30.669 11.911-7.549 7.925-11.33 19.073-11.33 33.395 0 14.856 3.829 26.343 11.463 34.547 7.622 8.191 17.534 12.287 29.7 12.287 11.79 0 21.423-4.023 28.888-12.057 7.476-8.010 11.209-19.303 11.209-33.856 0-0.872-0.024-2.205-0.085-3.987h-65.737c0.557-9.67 3.296-17.085 8.228-22.235 4.92-5.15 11.063-7.707 18.43-7.707 5.465 0 10.142 1.43 14.020 4.29 3.865 2.872 6.955 7.452 9.209 13.79zM969.314 333.982h49.233c-0.666 7.392-2.557 12.966-5.635 16.698-4.774 5.744-10.942 8.628-18.515 8.628-6.871 0-12.638-2.302-17.316-6.895s-7.258-10.736-7.767-18.43z" />
<glyph unicode="&#xe939;" horiz-adv-x="3002" d="M1110.106 313.734l14.674-1.902c-1.587-10.13-5.695-18.067-12.323-23.774-6.604-5.756-14.723-8.603-24.344-8.603-12.069 0-21.763 3.926-29.094 11.827-7.331 7.876-11.003 19.194-11.003 33.892 0 9.536 1.575 17.885 4.726 24.998 3.151 7.149 7.949 12.481 14.408 16.068 6.446 3.562 13.462 5.332 21.036 5.332 9.573 0 17.413-2.411 23.483-7.246 6.083-4.859 9.997-11.73 11.705-20.624l-14.529-2.254c-1.369 5.901-3.817 10.372-7.343 13.365-3.514 2.981-7.755 4.483-12.723 4.483-7.537 0-13.656-2.714-18.358-8.094-4.714-5.404-7.040-13.947-7.040-25.616 0-11.827 2.254-20.43 6.786-25.798 4.544-5.392 10.457-8.046 17.764-8.046 5.877 0 10.772 1.793 14.698 5.38 3.938 3.623 6.422 9.149 7.476 16.613z" />
<glyph unicode="&#xe93a;" horiz-adv-x="3002" d="M1137.564 281.429v88.142h13.45v-12.517c6.471 9.67 15.825 14.517 28.064 14.517 5.307 0 10.179-0.957 14.638-2.872 4.447-1.89 7.791-4.399 9.985-7.513 2.242-3.090 3.781-6.774 4.665-11.015 0.545-2.775 0.824-7.61 0.824-14.529v-54.213h-14.929v53.643c0 6.083-0.594 10.651-1.745 13.656-1.163 3.017-3.235 5.392-6.192 7.21s-6.434 2.702-10.409 2.702c-6.362 0-11.875-2.036-16.48-6.059-4.629-4.047-6.955-11.717-6.955-22.974v-48.179h-14.916z" />
<glyph unicode="&#xe93b;" horiz-adv-x="3002" d="M1226.541 325.512c0 16.334 4.544 28.439 13.62 36.267 7.585 6.543 16.819 9.815 27.737 9.815 12.105 0 22.005-3.962 29.712-11.923 7.682-7.925 11.536-18.891 11.536-32.899 0-11.354-1.721-20.248-5.114-26.767-3.405-6.507-8.349-11.56-14.856-15.147-6.507-3.611-13.608-5.404-21.278-5.404-12.36 0-22.332 3.938-29.942 11.875-7.598 7.901-11.415 19.291-11.415 34.183zM1241.906 325.512c0-11.293 2.46-19.739 7.379-25.362 4.932-5.635 11.124-8.397 18.612-8.397 7.404 0 13.571 2.799 18.503 8.446 4.92 5.635 7.379 14.262 7.379 25.81 0 10.893-2.472 19.158-7.416 24.792-4.968 5.622-11.136 8.397-18.467 8.397-7.489 0-13.68-2.775-18.612-8.361-4.92-5.598-7.379-14.032-7.379-25.325z" />
<glyph unicode="&#xe93c;" horiz-adv-x="3002" d="M1326.328 403.123h14.941v-121.682h-14.941v121.682z" />
<glyph unicode="&#xe93d;" horiz-adv-x="3002" d="M1358.851 325.512c0 16.334 4.532 28.439 13.608 36.267 7.585 6.543 16.831 9.815 27.737 9.815 12.105 0 21.993-3.962 29.7-11.923 7.695-7.925 11.524-18.891 11.524-32.899 0-11.354-1.672-20.248-5.089-26.767-3.393-6.507-8.337-11.56-14.856-15.147-6.495-3.611-13.596-5.404-21.278-5.404-12.36 0-22.32 3.938-29.942 11.875-7.598 7.901-11.402 19.291-11.402 34.183zM1374.203 325.512c0-11.293 2.472-19.739 7.379-25.362 4.92-5.635 11.124-8.397 18.612-8.397 7.404 0 13.571 2.799 18.491 8.446 4.944 5.635 7.404 14.262 7.404 25.81 0 10.893-2.484 19.158-7.44 24.792-4.968 5.622-11.112 8.397-18.455 8.397-7.489 0-13.693-2.775-18.612-8.361-4.908-5.598-7.379-14.032-7.379-25.325z" />
<glyph unicode="&#xe93e;" horiz-adv-x="3002" d="M1456.213 274.134l14.504-2.169c0.642-4.483 2.314-7.743 5.089-9.791 3.696-2.775 8.761-4.156 15.195-4.156 6.907 0 12.239 1.369 15.995 4.156 3.768 2.763 6.313 6.628 7.646 11.621 0.776 3.041 1.163 9.439 1.091 19.17-6.531-7.682-14.674-11.548-24.429-11.548-12.117 0-21.484 4.374-28.112 13.123-6.628 8.761-9.985 19.218-9.985 31.457 0 8.409 1.539 16.177 4.568 23.277 3.054 7.137 7.476 12.614 13.256 16.467 5.804 3.902 12.566 5.828 20.406 5.828 10.36 0 18.952-4.229 25.701-12.614v10.615h13.802v-76.182c0-13.717-1.393-23.483-4.217-29.191-2.787-5.719-7.222-10.251-13.281-13.571-6.059-3.296-13.511-4.968-22.369-4.968-10.53 0-19.024 2.375-25.495 7.089-6.446 4.738-9.573 11.875-9.367 21.387zM1468.597 327.111c0-11.56 2.278-20.006 6.883-25.337 4.592-5.307 10.348-7.961 17.255-7.961 6.858 0 12.614 2.654 17.255 7.925 4.665 5.295 6.98 13.559 6.98 24.853 0 10.797-2.387 18.939-7.173 24.429-4.786 5.453-10.554 8.191-17.304 8.191-6.652 0-12.311-2.69-16.94-8.094-4.641-5.38-6.955-13.39-6.955-24.004z" />
<glyph unicode="&#xe93f;" horiz-adv-x="3002" d="M1553.576 403.123h14.929v-17.182h-14.929v17.182zM1553.576 369.571h14.929v-88.129h-14.929v88.129z" />
<glyph unicode="&#xe940;" horiz-adv-x="3002" d="M1648.794 292.298c-5.538-4.702-10.881-8.010-15.995-9.948-5.114-1.927-10.603-2.896-16.467-2.896-9.682 0-17.11 2.375-22.344 7.101-5.21 4.726-7.791 10.76-7.791 18.14 0 4.302 0.994 8.252 2.957 11.814s4.544 6.422 7.719 8.591c3.175 2.181 6.774 3.793 10.748 4.895 2.932 0.776 7.355 1.515 13.305 2.242 12.045 1.442 20.927 3.175 26.622 5.15 0.073 2.060 0.097 3.357 0.097 3.902 0 6.083-1.418 10.372-4.265 12.869-3.805 3.381-9.464 5.065-16.989 5.065-7.028 0-12.239-1.236-15.571-3.696-3.332-2.448-5.816-6.822-7.452-13.075l-14.577 1.999c1.321 6.253 3.502 11.293 6.555 15.147 3.054 3.841 7.452 6.798 13.184 8.87 5.78 2.060 12.445 3.114 20.018 3.114 7.525 0 13.632-0.86 18.346-2.654 4.714-1.769 8.167-3.999 10.385-6.677 2.205-2.69 3.744-6.071 4.641-10.166 0.497-2.557 0.739-7.149 0.739-13.777v-19.945c0-13.886 0.327-22.672 0.969-26.355 0.642-3.659 1.89-7.198 3.793-10.578h-15.619c-1.563 3.102-2.581 6.713-3.005 10.869zM1647.534 325.669c-5.416-2.217-13.535-4.096-24.429-5.647-6.131-0.872-10.457-1.866-13.014-2.993-2.533-1.103-4.496-2.726-5.889-4.823-1.369-2.133-2.060-4.508-2.060-7.113 0-3.974 1.49-7.319 4.496-9.96 3.054-2.654 7.428-3.987 13.256-3.987 5.756 0 10.857 1.26 15.365 3.793 4.496 2.496 7.791 5.925 9.888 10.324 1.587 3.369 2.387 8.361 2.387 14.941v5.465z" />
<glyph unicode="&#xe941;" horiz-adv-x="3002" d="M1790.204 281.429v11.136c-5.562-8.749-13.777-13.123-24.635-13.123-7.028 0-13.487 1.939-19.388 5.816-5.889 3.865-10.457 9.258-13.68 16.213-3.247 6.955-4.847 14.929-4.847 23.968 0 8.797 1.442 16.783 4.399 23.968 2.908 7.137 7.319 12.638 13.184 16.443s12.42 5.744 19.691 5.744c5.283 0 10.033-1.127 14.153-3.357 4.168-2.242 7.549-5.174 10.13-8.749v43.635h14.892v-121.694h-13.899zM1742.982 325.439c0-11.293 2.363-19.751 7.125-25.337 4.786-5.586 10.36-8.349 16.855-8.349 6.555 0 12.093 2.642 16.661 7.997 4.544 5.32 6.858 13.462 6.858 24.441 0 12.081-2.339 20.927-6.98 26.549-4.641 5.671-10.385 8.458-17.182 8.458-6.652 0-12.19-2.702-16.637-8.131-4.471-5.392-6.701-13.935-6.701-25.628z" />
<glyph unicode="&#xe942;" horiz-adv-x="3002" d="M1885.082 292.298c-5.538-4.702-10.845-8.010-15.971-9.948-5.114-1.927-10.603-2.896-16.467-2.896-9.682 0-17.134 2.375-22.344 7.101-5.186 4.726-7.816 10.76-7.816 18.14 0 4.302 1.018 8.252 2.981 11.814 1.939 3.562 4.544 6.422 7.695 8.591 3.199 2.181 6.798 3.793 10.748 4.895 2.957 0.776 7.355 1.515 13.305 2.242 12.069 1.442 20.951 3.175 26.646 5.15 0.048 2.060 0.073 3.357 0.073 3.902 0 6.083-1.418 10.372-4.241 12.869-3.805 3.381-9.488 5.065-17.013 5.065-7.004 0-12.214-1.236-15.547-3.696-3.357-2.448-5.816-6.822-7.428-13.075l-14.626 1.999c1.345 6.253 3.502 11.293 6.555 15.147 3.054 3.841 7.452 6.798 13.208 8.87 5.78 2.060 12.42 3.114 19.994 3.114 7.549 0 13.656-0.86 18.346-2.654 4.738-1.769 8.167-3.999 10.385-6.677 2.23-2.69 3.768-6.071 4.665-10.166 0.473-2.557 0.739-7.149 0.739-13.777v-19.945c0-13.886 0.303-22.672 0.945-26.355 0.642-3.659 1.915-7.198 3.793-10.578h-15.595c-1.587 3.102-2.581 6.713-3.029 10.869zM1883.846 325.669c-5.416-2.217-13.559-4.096-24.429-5.647-6.131-0.872-10.481-1.866-13.038-2.993-2.533-1.103-4.496-2.726-5.865-4.823-1.369-2.133-2.084-4.508-2.084-7.113 0-3.974 1.515-7.319 4.544-9.96s7.404-3.987 13.232-3.987c5.756 0 10.857 1.26 15.365 3.793 4.471 2.496 7.767 5.925 9.864 10.324 1.612 3.369 2.411 8.361 2.411 14.941v5.465z" />
<glyph unicode="&#xe943;" horiz-adv-x="3002" d="M1969.007 403.123h14.929v-121.682h-14.929v121.682z" />
<glyph unicode="&#xe944;" horiz-adv-x="3002" d="M2001.518 325.512c0 16.334 4.544 28.439 13.632 36.267 7.573 6.543 16.807 9.815 27.737 9.815 12.093 0 22.029-3.962 29.7-11.923 7.695-7.925 11.548-18.891 11.548-32.899 0-11.354-1.733-20.248-5.114-26.767-3.405-6.507-8.349-11.56-14.892-15.147-6.483-3.611-13.584-5.404-21.254-5.404-12.36 0-22.32 3.938-29.918 11.875-7.598 7.901-11.439 19.291-11.439 34.183zM2016.907 325.512c0-11.293 2.436-19.739 7.355-25.362 4.944-5.635 11.148-8.397 18.624-8.397 7.404 0 13.584 2.799 18.479 8.446 4.92 5.635 7.379 14.262 7.379 25.81 0 10.893-2.46 19.158-7.404 24.792-4.968 5.622-11.124 8.397-18.455 8.397-7.476 0-13.68-2.775-18.624-8.361-4.92-5.598-7.355-14.032-7.355-25.325z" />
<glyph unicode="&#xe945;" horiz-adv-x="3002" d="M2159.164 313.734l14.698-1.902c-1.636-10.13-5.756-18.067-12.36-23.774-6.604-5.756-14.723-8.603-24.356-8.603-12.069 0-21.751 3.926-29.082 11.827-7.319 7.876-10.978 19.194-10.978 33.892 0 9.536 1.563 17.885 4.738 24.998 3.126 7.149 7.949 12.481 14.371 16.068 6.459 3.562 13.462 5.332 21.060 5.332 9.561 0 17.4-2.411 23.496-7.246 6.083-4.859 9.96-11.73 11.717-20.624l-14.553-2.254c-1.393 5.901-3.829 10.372-7.331 13.365-3.526 2.981-7.791 4.483-12.735 4.483-7.525 0-13.656-2.714-18.37-8.094-4.689-5.404-7.052-13.947-7.052-25.616 0-11.827 2.278-20.43 6.798-25.798 4.544-5.392 10.481-8.046 17.776-8.046 5.865 0 10.772 1.793 14.723 5.38 3.89 3.623 6.374 9.149 7.44 16.613z" />
<glyph unicode="&#xe946;" horiz-adv-x="3002" d="M2244.18 292.298c-5.538-4.702-10.881-8.010-15.995-9.948-5.138-1.927-10.627-2.896-16.467-2.896-9.706 0-17.11 2.375-22.344 7.101-5.21 4.726-7.791 10.76-7.791 18.14 0 4.302 0.969 8.252 2.957 11.814 1.939 3.562 4.52 6.422 7.695 8.591 3.199 2.181 6.798 3.793 10.748 4.895 2.932 0.776 7.379 1.515 13.305 2.242 12.045 1.442 20.951 3.175 26.646 5.15 0.024 2.060 0.073 3.357 0.073 3.902 0 6.083-1.393 10.372-4.241 12.869-3.829 3.381-9.488 5.065-17.013 5.065-7.028 0-12.214-1.236-15.547-3.696-3.357-2.448-5.841-6.822-7.452-13.075l-14.601 1.999c1.321 6.253 3.526 11.293 6.555 15.147 3.054 3.841 7.452 6.798 13.208 8.87 5.78 2.060 12.42 3.114 19.994 3.114 7.525 0 13.656-0.86 18.37-2.654 4.689-1.769 8.143-3.999 10.36-6.677 2.205-2.69 3.768-6.071 4.641-10.166 0.497-2.557 0.763-7.149 0.763-13.777v-19.945c0-13.886 0.303-22.672 0.945-26.355 0.642-3.659 1.915-7.198 3.793-10.578h-15.595c-1.587 3.102-2.581 6.713-3.005 10.869zM2242.919 325.669c-5.416-2.217-13.559-4.096-24.429-5.647-6.131-0.872-10.481-1.866-13.038-2.993-2.533-1.103-4.496-2.726-5.889-4.823-1.369-2.133-2.060-4.508-2.060-7.113 0-3.974 1.539-7.319 4.52-9.96 3.029-2.654 7.404-3.987 13.256-3.987 5.732 0 10.845 1.26 15.341 3.793 4.471 2.496 7.791 5.925 9.888 10.324 1.612 3.369 2.411 8.361 2.411 14.941v5.465z" />
<glyph unicode="&#xe947;" horiz-adv-x="3002" d="M2280.835 403.123h14.953v-121.682h-14.953v121.682z" />
<glyph unicode="&#xe948;" horiz-adv-x="3002" d="M2319.004 403.123h14.929v-17.182h-14.929v17.182zM2319.004 369.571h14.929v-88.129h-14.929v88.129z" />
<glyph unicode="&#xe949;" horiz-adv-x="3002" d="M2348.801 281.429v12.117l56.14 64.416c-6.386-0.339-11.996-0.509-16.879-0.509h-35.928v12.117h72.038v-9.851l-47.73-55.946-9.197-10.227c6.701 0.509 12.99 0.763 18.842 0.763h40.751v-12.881h-78.036z" />
</font>
</defs>
</svg>
